Featured TV Shows


Married to Medicine S05E10

Posted By: Tavaz
1080p (FullHD) / WEB-DL IMDb
Married to Medicine S05E10

Married to Medicine S05E10
WEB-DL | MKV | 1920x1080 | English | H264 @ 12088 kbps | E-AC-3 @ 640 kbps | 43 min 14 s | 3.84 GiB
Subtitles: English

Follows a group of successful and educated women who are connected to the world of medicine in Atlanta, including doctors and wives of doctors. Whether delivering babies in Louboutins or rushing off to galas in Buckhead, these women do everything with style, drama, and of course, southern flair.

7755e3bd61174a729197297c9add1c4d.mkv (3.8 GB)



General
Unique ID : 76781965326161687934169655203054278560 (0x39C3AB2ABFDFC1A2F41B9F3E3790D7A0)
Complete name : ./7755e3bd61174a729197297c9add1c4d.mkv
Format : Matroska
Format version : Version 4 / Version 2
File size : 3.84 GiB
Duration : 43 min 14 s
Overall bit rate mode : Variable
Overall bit rate : 12.7 Mb/s
Encoded date : UTC 2018-01-21 05:00:34
Writing application : mkvmerge v19.0.0 ('Brave Captain') 64-bit
Writing library : libebml v1.3.5 + libmatroska v1.4.8

Video
ID : 1
Format : AVC
Format/Info : Advanced Video Codec
Format profile : High@L4
Format settings : CABAC / 4 Ref Frames
Format settings, CABAC : Yes
Format settings, RefFrames : 4 frames
Codec ID : V_MPEG4/ISO/AVC
Duration : 43 min 13 s
Bit rate mode : Variable
Bit rate : 12.1 Mb/s
Maximum bit rate : 15.0 Mb/s
Width : 1 920 pixels
Height : 1 080 pixels
Display aspect ratio : 16:9
Frame rate mode : Constant
Frame rate : 23.976 (24000/1001) FPS
Color space : YUV
Chroma subsampling : 4:2:0
Bit depth : 8 bits
Scan type : Progressive
Bits/(Pixel*Frame) : 0.243
Stream size : 3.65 GiB (95%)
Default : Yes
Forced : No
Color range : Limited
Color primaries : BT.709
Transfer characteristics : BT.709
Matrix coefficients : BT.709

Audio
ID : 2
Format : E-AC-3
Format/Info : Enhanced Audio Coding 3
Format settings, Endianness : Big
Codec ID : A_EAC3
Duration : 43 min 13 s
Bit rate mode : Constant
Bit rate : 640 kb/s
Channel(s) : 6 channels
Channel positions : Front: L C R, Side: L R, LFE
Sampling rate : 48.0 kHz
Frame rate : 187.500 FPS (256 SPF)
Compression mode : Lossy
Stream size : 198 MiB (5%)
Language : English
Service kind : Complete Main
Default : Yes
Forced : No

Text #1
ID : 3
Format : UTF-8
Codec ID : S_TEXT/UTF8
Codec ID/Info : UTF-8 Plain Text
Duration : 43 min 11 s
Bit rate : 110 b/s
Count of elements : 1056
Stream size : 34.8 KiB (0%)
Language : English
Default : No
Forced : No

Text #2
ID : 4
Format : UTF-8
Codec ID : S_TEXT/UTF8
Codec ID/Info : UTF-8 Plain Text
Duration : 43 min 11 s
Bit rate : 114 b/s
Count of elements : 1104
Stream size : 36.2 KiB (0%)
Title : SDH
Language : English
Default : No
Forced : No





Married to Medicine S05E10


Married to Medicine S05E10


Married to Medicine S05E10


Married to Medicine S05E10


Married to Medicine S05E10

All episodes