Featured TV Shows


Marvel's 616 S01E01

Posted By: Tavaz
1080p (FullHD) / WEB-DL IMDb
Marvel's 616 S01E01

Marvel's 616 S01E01
WEB-DL | MKV | 1920x1080 | English | H264 @ 8459 kbps | E-AC-3 @ 256 kbps | 49 min 31 s | 3.02 GiB
Subtitles: Français, Deutsch, Suomi, Español, Polski, Italiano, Nederlands, Svenska, Dansk, English, Português
Genre: Documentary

The series explores Marvel’s rich legacy of pioneering characters, creators and storytelling to reflect the world outside your window. Each documentary, helmed by a unique filmmaker, showcases the intersections of storytelling, pop culture, and fandom within the Marvel Universe. Episodes in this anthology series will cover topics including Marvel’s world-spanning artists, the trailblazing women of Marvel Comics, discovering the “forgotten” characters of Marvel, and much more.

68ad2adf64bfd1a94de2ac8fcc5cc5d9.mkv (3.0 GB)



General
Unique ID : 10242863567547108601199416124977353980 (0x7B4B42A03E4B528D5FCE88D3C0694FC)
Complete name : ./68ad2adf64bfd1a94de2ac8fcc5cc5d9.mkv
Format : Matroska
Format version : Version 4 / Version 2
File size : 3.02 GiB
Duration : 49 min 31 s
Overall bit rate mode : Variable
Overall bit rate : 8 719 kb/s
Encoded date : UTC 2020-11-20 14:21:34
Writing application : mkvmerge v42.0.0 ('Overtime') 64-bit
Writing library : libebml v1.3.10 + libmatroska v1.5.2

Video
ID : 1
Format : AVC
Format/Info : Advanced Video Codec
Format profile : High@L4
Format settings : CABAC / 4 Ref Frames
Format settings, CABAC : Yes
Format settings, RefFrames : 4 frames
Codec ID : V_MPEG4/ISO/AVC
Duration : 49 min 31 s
Bit rate mode : Variable
Bit rate : 8 459 kb/s
Maximum bit rate : 12.7 Mb/s
Width : 1 920 pixels
Height : 1 080 pixels
Display aspect ratio : 16:9
Frame rate mode : Constant
Frame rate : 23.976 (24000/1001) FPS
Color space : YUV
Chroma subsampling : 4:2:0
Bit depth : 8 bits
Scan type : Progressive
Bits/(Pixel*Frame) : 0.170
Stream size : 2.93 GiB (97%)
Default : Yes
Forced : No
Color range : Limited
Color primaries : BT.709
Transfer characteristics : BT.709
Matrix coefficients : BT.709

Audio
ID : 2
Format : E-AC-3
Format/Info : Enhanced Audio Coding 3
Format settings, Endianness : Big
Codec ID : A_EAC3
Duration : 49 min 31 s
Bit rate mode : Constant
Bit rate : 256 kb/s
Channel(s) : 6 channels
Channel positions : Front: L C R, Side: L R, LFE
Sampling rate : 48.0 kHz
Frame rate : 187.500 FPS (256 SPF)
Compression mode : Lossy
Stream size : 90.7 MiB (3%)
Language : English
Service kind : Complete Main
Default : Yes
Forced : No

Text #1
ID : 3
Format : UTF-8
Codec ID : S_TEXT/UTF8
Codec ID/Info : UTF-8 Plain Text
Duration : 48 min 55 s
Bit rate : 77 b/s
Count of elements : 691
Stream size : 27.7 KiB (0%)
Language : Danish
Default : No
Forced : No

Text #2
ID : 4
Format : UTF-8
Codec ID : S_TEXT/UTF8
Codec ID/Info : UTF-8 Plain Text
Duration : 48 min 55 s
Bit rate : 80 b/s
Count of elements : 707
Stream size : 28.7 KiB (0%)
Language : German
Default : No
Forced : No

Text #3
ID : 5
Format : UTF-8
Codec ID : S_TEXT/UTF8
Codec ID/Info : UTF-8 Plain Text
Duration : 48 min 48 s
Bit rate : 45 b/s
Count of elements : 413
Stream size : 16.1 KiB (0%)
Title : (SDH)
Language : English
Default : No
Forced : No

Text #4
ID : 6
Format : UTF-8
Codec ID : S_TEXT/UTF8
Codec ID/Info : UTF-8 Plain Text
Duration : 48 min 55 s
Bit rate : 75 b/s
Count of elements : 691
Stream size : 27.0 KiB (0%)
Language : Finnish
Default : No
Forced : No

Text #5
ID : 7
Format : UTF-8
Codec ID : S_TEXT/UTF8
Codec ID/Info : UTF-8 Plain Text
Duration : 48 min 55 s
Bit rate : 84 b/s
Count of elements : 686
Stream size : 30.2 KiB (0%)
Language : French
Default : No
Forced : No

Text #6
ID : 8
Format : UTF-8
Codec ID : S_TEXT/UTF8
Codec ID/Info : UTF-8 Plain Text
Duration : 48 min 55 s
Bit rate : 71 b/s
Count of elements : 670
Stream size : 25.7 KiB (0%)
Language : Italian
Default : No
Forced : No

Text #7
ID : 9
Format : UTF-8
Codec ID : S_TEXT/UTF8
Codec ID/Info : UTF-8 Plain Text
Duration : 48 min 55 s
Bit rate : 70 b/s
Count of elements : 670
Stream size : 25.4 KiB (0%)
Language : Dutch
Default : No
Forced : No

Text #8
ID : 10
Format : UTF-8
Codec ID : S_TEXT/UTF8
Codec ID/Info : UTF-8 Plain Text
Duration : 48 min 55 s
Bit rate : 68 b/s
Count of elements : 682
Stream size : 24.6 KiB (0%)
Language : Norwegian
Default : No
Forced : No

Text #9
ID : 11
Format : UTF-8
Codec ID : S_TEXT/UTF8
Codec ID/Info : UTF-8 Plain Text
Duration : 48 min 55 s
Bit rate : 76 b/s
Count of elements : 689
Stream size : 27.6 KiB (0%)
Language : Polish
Default : No
Forced : No

Text #10
ID : 12
Format : UTF-8
Codec ID : S_TEXT/UTF8
Codec ID/Info : UTF-8 Plain Text
Duration : 48 min 55 s
Bit rate : 78 b/s
Count of elements : 678
Stream size : 28.0 KiB (0%)
Language : Portuguese
Default : No
Forced : No

Text #11
ID : 13
Format : UTF-8
Codec ID : S_TEXT/UTF8
Codec ID/Info : UTF-8 Plain Text
Duration : 48 min 55 s
Bit rate : 77 b/s
Count of elements : 662
Stream size : 27.8 KiB (0%)
Language : Spanish
Default : No
Forced : No

Text #12
ID : 14
Format : UTF-8
Codec ID : S_TEXT/UTF8
Codec ID/Info : UTF-8 Plain Text
Duration : 48 min 55 s
Bit rate : 79 b/s
Count of elements : 689
Stream size : 28.5 KiB (0%)
Language : Swedish
Default : No
Forced : No





Marvel's 616 S01E01


Marvel's 616 S01E01


Marvel's 616 S01E01


Marvel's 616 S01E01


Marvel's 616 S01E01

All episodes