Featured TV Shows


Marvel's Agents of S.H.I.E.L.D. S06E12

Posted By: Tavaz
1080p (FullHD) / WEBRip IMDb
Marvel's Agents of S.H.I.E.L.D. S06E12

Marvel's Agents of S.H.I.E.L.D. S06E12
WEBRip | MKV | 1920x1080 | French / English | H264 @ 5000 kbps | AAC @ 125 kbps | 39 min 58 s | 1.43 GiB
Subtitles: French
Genre: Drama


Agent Phil Coulson of S.H.I.E.L.D. (Strategic Homeland Intervention, Enforcement and Logistics Division) puts together a team of agents to investigate the new, the strange and the unknown around the globe, protecting the ordinary from the extraordinary.

57e927efd1904d3e94a9fa065954a951.mkv (1.4 GB)



General
Unique ID : 270981955853931047962942768074428964513 (0xCBDD39EFE558301623409130C612DEA1)
Complete name : ./57e927efd1904d3e94a9fa065954a951.mkv
Format : Matroska
Format version : Version 4 / Version 2
File size : 1.43 GiB
Duration : 39 min 58 s
Overall bit rate : 5 135 kb/s
Encoded date : UTC 2020-01-17 20:26:26
Writing application : mkvmerge v42.0.0 ('Overtime') 64-bit
Writing library : libebml v1.3.10 + libmatroska v1.5.2

Video
ID : 1
Format : AVC
Format/Info : Advanced Video Codec
Format profile : High@L4
Format settings : CABAC / 2 Ref Frames
Format settings, CABAC : Yes
Format settings, RefFrames : 2 frames
Codec ID : V_MPEG4/ISO/AVC
Duration : 39 min 56 s
Bit rate mode : Constant
Bit rate : 5 000 kb/s
Width : 1 920 pixels
Height : 1 080 pixels
Display aspect ratio : 16:9
Frame rate mode : Constant
Frame rate : 25.000 FPS
Color space : YUV
Chroma subsampling : 4:2:0
Bit depth : 8 bits
Scan type : Progressive
Bits/(Pixel*Frame) : 0.096
Stream size : 1.36 GiB (95%)
Default : Yes
Forced : No

Audio #1
ID : 2
Format : AAC
Format/Info : Advanced Audio Codec
Format profile : LC
Codec ID : A_AAC-2
Duration : 39 min 58 s
Bit rate : 125 kb/s
Channel(s) : 2 channels
Channel positions : Front: L R
Sampling rate : 48.0 kHz
Frame rate : 46.875 FPS (1024 SPF)
Compression mode : Lossy
Stream size : 35.8 MiB (2%)
Title : French
Language : French
Default : Yes
Forced : No

Audio #2
ID : 3
Format : AAC
Format/Info : Advanced Audio Codec
Format profile : LC
Codec ID : A_AAC-2
Duration : 39 min 58 s
Bit rate : 125 kb/s
Channel(s) : 2 channels
Channel positions : Front: L R
Sampling rate : 48.0 kHz
Frame rate : 46.875 FPS (1024 SPF)
Compression mode : Lossy
Stream size : 35.8 MiB (2%)
Title : English
Language : English
Default : No
Forced : No

Text
ID : 4
Format : UTF-8
Codec ID : S_TEXT/UTF8
Codec ID/Info : UTF-8 Plain Text
Duration : 39 min 33 s
Bit rate : 58 b/s
Count of elements : 641
Stream size : 16.9 KiB (0%)
Title : French
Language : French
Default : No
Forced : No





Marvel's Agents of S.H.I.E.L.D. S06E12


Marvel's Agents of S.H.I.E.L.D. S06E12


Marvel's Agents of S.H.I.E.L.D. S06E12


Marvel's Agents of S.H.I.E.L.D. S06E12


Marvel's Agents of S.H.I.E.L.D. S06E12

All episodes