Featured TV Shows


Marvel's Cloak & Dagger S01E03

Posted By: Tavaz
1080p (FullHD) / WEBRip IMDb
Marvel's Cloak & Dagger S01E03

Marvel's Cloak & Dagger S01E03
WEB-DL | MKV | 1920x1080 | German / English | H264 @ 8586 kbps | AC-3 @ 640 kbps | 40 min 7 s | 2.67 GiB
Subtitles: English
Genre: Drama

Two teenagers from very different backgrounds awaken to newly acquired superpowers which mysteriously link them to one another.

marvels.cloak.and.dagger.s01e03.german.dl.dubbed.1080p.webhd.x264-tvnation.sample.mkv (61.1 MB)
Marvels.Cloak.and.Dagger.S01E03.German.DL.DUBBED.1080p.WebHD.x264-TVNATiON.mkv (2.7 GB)



General
Unique ID : 191055626850489889142756354764359428581 (0x8FBBF9ABEAE2E87887B42778E9E969E5)
Complete name : ./Marvels.Cloak.and.Dagger.S01E03.German.DL.DUBBED.1080p.WebHD.x264-TVNATiON.mkv
Format : Matroska
Format version : Version 4 / Version 2
File size : 2.67 GiB
Duration : 40 min 7 s
Overall bit rate : 9 515 kb/s
Encoded date : UTC 2018-06-27 11:18:06
Writing application : mkvmerge v8.3.0 ('Over the Horizon') 64bit
Writing library : libebml v1.3.1 + libmatroska v1.4.2

Video
ID : 1
Format : AVC
Format/Info : Advanced Video Codec
Format profile : High@L4
Format settings : CABAC / 4 Ref Frames
Format settings, CABAC : Yes
Format settings, RefFrames : 4 frames
Codec ID : V_MPEG4/ISO/AVC
Duration : 38 min 41 s
Bit rate : 8 586 kb/s
Width : 1 920 pixels
Height : 1 080 pixels
Display aspect ratio : 16:9
Frame rate mode : Constant
Frame rate : 25.000 FPS
Original frame rate : 23.976 (24000/1001) FPS
Color space : YUV
Chroma subsampling : 4:2:0
Bit depth : 8 bits
Scan type : Progressive
Bits/(Pixel*Frame) : 0.166
Stream size : 2.32 GiB (87%)
Language : English
Default : Yes
Forced : No
Color range : Limited
Color primaries : BT.709
Transfer characteristics : BT.709
Matrix coefficients : BT.709

Audio #1
ID : 2
Format : AC-3
Format/Info : Audio Coding 3
Format settings, Endianness : Big
Codec ID : A_AC3
Duration : 38 min 41 s
Bit rate mode : Constant
Bit rate : 640 kb/s
Channel(s) : 6 channels
Channel positions : Front: L C R, Side: L R, LFE
Sampling rate : 48.0 kHz
Frame rate : 31.250 FPS (1536 SPF)
Bit depth : 16 bits
Compression mode : Lossy
Stream size : 177 MiB (6%)
Language : German
Service kind : Complete Main
Default : Yes
Forced : No

Audio #2
ID : 3
Format : AC-3
Format/Info : Audio Coding 3
Format settings, Endianness : Big
Codec ID : A_AC3
Duration : 38 min 41 s
Bit rate mode : Constant
Bit rate : 640 kb/s
Channel(s) : 6 channels
Channel positions : Front: L C R, Side: L R, LFE
Sampling rate : 48.0 kHz
Frame rate : 31.250 FPS (1536 SPF)
Bit depth : 16 bits
Compression mode : Lossy
Stream size : 177 MiB (6%)
Language : English
Service kind : Complete Main
Default : No
Forced : No

Text #1
ID : 4
Format : UTF-8
Codec ID : S_TEXT/UTF8
Codec ID/Info : UTF-8 Plain Text
Duration : 39 min 21 s
Bit rate : 40 b/s
Count of elements : 414
Stream size : 11.7 KiB (0%)
Title : English
Language : English
Default : No
Forced : No

Text #2
ID : 5
Format : UTF-8
Codec ID : S_TEXT/UTF8
Codec ID/Info : UTF-8 Plain Text
Duration : 39 min 59 s
Bit rate : 57 b/s
Count of elements : 573
Stream size : 16.8 KiB (0%)
Title : English (SDH)
Language : English
Default : No
Forced : No





Marvel's Cloak & Dagger S01E03


Marvel's Cloak & Dagger S01E03


Marvel's Cloak & Dagger S01E03


Marvel's Cloak & Dagger S01E03


Marvel's Cloak & Dagger S01E03

All episodes