Featured TV Shows


Marvel's Cloak & Dagger S01E03

Posted By: Tavaz
720p (HD) / WEBRip IMDb
Marvel's Cloak & Dagger S01E03

Marvel's Cloak & Dagger S01E03
WEB-DL | MKV | 1280x720 | German / English | H264 @ 2285 kbps | AC-3 @ 640 kbps | 38 min 41 s | 987 MiB
Genre: Drama

Die neuesten jugendlichen Superhelden aus dem Marvel-Universum bedingen einander wie Licht und Schatten. Dabei sind Tandy Bowen (Olivia Holt) und Tyrone Johnson (Aubrey Joseph) nicht nur durch ein gemeinsames tragisches Schicksal verbunden, sondern auch durch ihre spektakulären Kräfte: Denn Tandy hat die Fähigkeit, Licht zu Dolchen formen, während Tyrone andere Menschen in undurchdringliche Dunkelheit hüllen kann. Erst im Zusammenspiel als "Cloak & Dagger" entfalten sie dabei ihr volles Potenzial, das durch aufkeimende Gefühle füreinander allerdings bald schon gefährdet wird.

marvels.cloak.and.dagger.s01e03.german.dl.dubbed.720p.webhd.x264-tvnation.sample.mkv (24.0 MB)
Marvels.Cloak.and.Dagger.S01E03.German.DL.DUBBED.720p.WebHD.x264-TVNATiON.mkv (987.3 MB)



General
Unique ID : 241151125835296377004133496409446738421 (0xB56C0476BE74B6F986E2DF3C870CE9F5)
Complete name : ./Marvels.Cloak.and.Dagger.S01E03.German.DL.DUBBED.720p.WebHD.x264-TVNATiON.mkv
Format : Matroska
Format version : Version 4 / Version 2
File size : 987 MiB
Duration : 38 min 41 s
Overall bit rate : 3 568 kb/s
Encoded date : UTC 2018-06-27 11:17:46
Writing application : mkvmerge v8.3.0 ('Over the Horizon') 64bit
Writing library : libebml v1.3.1 + libmatroska v1.4.2

Video
ID : 1
Format : AVC
Format/Info : Advanced Video Codec
Format profile : High@L4.1
Format settings : CABAC / 5 Ref Frames
Format settings, CABAC : Yes
Format settings, RefFrames : 5 frames
Codec ID : V_MPEG4/ISO/AVC
Duration : 38 min 41 s
Bit rate : 2 286 kb/s
Width : 1 280 pixels
Height : 720 pixels
Display aspect ratio : 16:9
Frame rate mode : Constant
Frame rate : 25.000 FPS
Original frame rate : 23.976 (24000/1001) FPS
Color space : YUV
Chroma subsampling : 4:2:0
Bit depth : 8 bits
Scan type : Progressive
Bits/(Pixel*Frame) : 0.099
Stream size : 633 MiB (64%)
Writing library : x264 core 155 r2901 7d0ff22
Encoding settings : cabac=1 / ref=5 / deblock=1:-3:-3 / analyse=0x3:0x133 / me=umh / subme=10 / psy=1 / psy_rd=1.05:0.15 / mixed_ref=1 / me_range=16 / chroma_me=1 / trellis=2 / 8x8dct=1 / cqm=0 / deadzone=21,11 / fast_pskip=0 / chroma_qp_offset=-3 / threads=22 / lookahead_threads=1 / sliced_threads=0 / nr=0 / decimate=1 / interlaced=0 / bluray_compat=0 / constrained_intra=0 / bframes=3 / b_pyramid=2 / b_adapt=2 / b_bias=0 / direct=3 / weightb=1 / open_gop=0 / weightp=2 / keyint=250 / keyint_min=24 / scenecut=40 / intra_refresh=0 / rc_lookahead=50 / rc=crf / mbtree=1 / crf=18.0 / qcomp=0.60 / qpmin=0 / qpmax=69 / qpstep=4 / ip_ratio=1.40 / aq=3:0.65
Language : English
Default : Yes
Forced : No

Audio #1
ID : 2
Format : AC-3
Format/Info : Audio Coding 3
Format settings, Endianness : Big
Codec ID : A_AC3
Duration : 38 min 41 s
Bit rate mode : Constant
Bit rate : 640 kb/s
Channel(s) : 6 channels
Channel positions : Front: L C R, Side: L R, LFE
Sampling rate : 48.0 kHz
Frame rate : 31.250 FPS (1536 SPF)
Bit depth : 16 bits
Compression mode : Lossy
Stream size : 177 MiB (18%)
Language : German
Service kind : Complete Main
Default : Yes
Forced : No

Audio #2
ID : 3
Format : AC-3
Format/Info : Audio Coding 3
Format settings, Endianness : Big
Codec ID : A_AC3
Duration : 38 min 41 s
Bit rate mode : Constant
Bit rate : 640 kb/s
Channel(s) : 6 channels
Channel positions : Front: L C R, Side: L R, LFE
Sampling rate : 48.0 kHz
Frame rate : 31.250 FPS (1536 SPF)
Bit depth : 16 bits
Compression mode : Lossy
Stream size : 177 MiB (18%)
Language : English
Service kind : Complete Main
Default : No
Forced : No





Marvel's Cloak & Dagger S01E03


Marvel's Cloak & Dagger S01E03


Marvel's Cloak & Dagger S01E03


Marvel's Cloak & Dagger S01E03


Marvel's Cloak & Dagger S01E03

All episodes