Featured TV Shows


Marvel's Daredevil S01E08

Posted By: Tavaz
1080p (FullHD) / WEBRip IMDb
Marvel's Daredevil S01E08

Marvel's Daredevil S01E08
WEBRip | MKV | 1920x1080 | English | H264 @ 10632 kbps | AC-3 @ 640 kbps | 53 min 3 s | 4.18 GiB
Subtitles: Deutsch, Español, Français, English
Genre: Action, Crime


Lawyer-by-day Matt Murdock uses his heightened senses from being blinded as a young boy to fight crime at night on the streets of Hell’s Kitchen as Daredevil.

d27a6307d6aa40818c60286b89c26015.mkv (4.2 GB)



General
Unique ID : 214282608434163020038007050647658638315 (0xA1355447665F8A94A345EDF1E5792BEB)
Complete name : ./d27a6307d6aa40818c60286b89c26015.mkv
Format : Matroska
Format version : Version 2
File size : 4.18 GiB
Duration : 53 min 3 s
Overall bit rate : 11.3 Mb/s
Encoded date : UTC 2015-04-12 18:12:12
Writing application : mkvmerge v7.8.0 ('River Man') 64bit built on Mar 27 2015 16:31:37
Writing library : libebml v1.3.1 + libmatroska v1.4.2

Video
ID : 1
Format : AVC
Format/Info : Advanced Video Codec
Format profile : High@L4.1
Format settings : CABAC / 4 Ref Frames
Format settings, CABAC : Yes
Format settings, RefFrames : 4 frames
Codec ID : V_MPEG4/ISO/AVC
Duration : 53 min 3 s
Bit rate : 10.6 Mb/s
Width : 1 920 pixels
Height : 1 080 pixels
Display aspect ratio : 16:9
Frame rate mode : Constant
Frame rate : 23.976 (24000/1001) FPS
Color space : YUV
Chroma subsampling : 4:2:0
Bit depth : 8 bits
Scan type : Progressive
Bits/(Pixel*Frame) : 0.214
Stream size : 3.94 GiB (94%)
Writing library : x264 core 144 r2525 40bb568
Encoding settings : cabac=1 / ref=4 / deblock=1:-3:-3 / analyse=0x3:0x133 / me=umh / subme=10 / psy=1 / psy_rd=1.00:0.00 / mixed_ref=1 / me_range=48 / chroma_me=1 / trellis=2 / 8x8dct=1 / cqm=0 / deadzone=21,11 / fast_pskip=0 / chroma_qp_offset=-2 / threads=12 / lookahead_threads=2 / sliced_threads=0 / nr=0 / decimate=0 / interlaced=0 / bluray_compat=0 / constrained_intra=0 / bframes=7 / b_pyramid=2 / b_adapt=2 / b_bias=0 / direct=3 / weightb=1 / open_gop=0 / weightp=2 / keyint=250 / keyint_min=24 / scenecut=40 / intra_refresh=0 / rc_lookahead=150 / rc=crf / mbtree=0 / crf=18.0 / qcomp=0.75 / qpmin=0 / qpmax=69 / qpstep=4 / vbv_maxrate=62500 / vbv_bufsize=78125 / crf_max=0.0 / nal_hrd=none / filler=0 / ip_ratio=1.40 / pb_ratio=1.30 / aq=1:0.70
Language : English
Default : Yes
Forced : No

Audio
ID : 2
Format : AC-3
Format/Info : Audio Coding 3
Format settings, Endianness : Big
Codec ID : A_AC3
Duration : 53 min 3 s
Bit rate mode : Constant
Bit rate : 640 kb/s
Channel(s) : 6 channels
Channel positions : Front: L C R, Side: L R, LFE
Sampling rate : 48.0 kHz
Frame rate : 31.250 FPS (1536 SPF)
Bit depth : 16 bits
Compression mode : Lossy
Stream size : 243 MiB (6%)
Language : English
Service kind : Complete Main
Default : Yes
Forced : No

Text #1
ID : 3
Format : UTF-8
Codec ID : S_TEXT/UTF8
Codec ID/Info : UTF-8 Plain Text
Duration : 2 min 53 s
Bit rate : 44 b/s
Count of elements : 40
Stream size : 957 Bytes (0%)
Title : FORCED
Language : English
Default : Yes
Forced : Yes

Text #2
ID : 4
Format : UTF-8
Codec ID : S_TEXT/UTF8
Codec ID/Info : UTF-8 Plain Text
Duration : 51 min 29 s
Bit rate : 70 b/s
Count of elements : 796
Stream size : 26.4 KiB (0%)
Title : CC
Language : English
Default : No
Forced : No

Text #3
ID : 5
Format : UTF-8
Codec ID : S_TEXT/UTF8
Codec ID/Info : UTF-8 Plain Text
Duration : 49 min 33 s
Bit rate : 68 b/s
Count of elements : 729
Stream size : 24.7 KiB (0%)
Language : French
Default : No
Forced : No

Text #4
ID : 6
Format : UTF-8
Codec ID : S_TEXT/UTF8
Codec ID/Info : UTF-8 Plain Text
Duration : 48 min 22 s
Bit rate : 68 b/s
Count of elements : 725
Stream size : 24.4 KiB (0%)
Language : German
Default : No
Forced : No

Text #5
ID : 7
Format : UTF-8
Codec ID : S_TEXT/UTF8
Codec ID/Info : UTF-8 Plain Text
Duration : 48 min 22 s
Bit rate : 64 b/s
Count of elements : 728
Stream size : 22.9 KiB (0%)
Language : Spanish
Default : No
Forced : No





Marvel's Daredevil S01E08


Marvel's Daredevil S01E08


Marvel's Daredevil S01E08


Marvel's Daredevil S01E08


Marvel's Daredevil S01E08

All episodes