Featured TV Shows


Marvel's Guardians of the Galaxy S03E07

Posted By: Tavaz
720p (HD) / WEB-DL IMDb
Marvel's Guardians of the Galaxy S03E07

Marvel's Guardians of the Galaxy S03E07
WEB-DL | MKV | 1280x720 | English | H264 @ 3360 kbps | AAC @ 126 kbps | 22 min 3 s | 537 MiB
Subtitles: English
Genre: Animation

Peter Quill is Star-Lord, the brash adventurer who, to save the universe from its greatest threats, joins forces with a quartet of disparate misfits — fan-favorite Rocket Raccoon, a tree-like humanoid named Groot, the enigmatic, expert fighter Gamora and the rough edged warrior Drax the Destroyer.

Marvels.Guardians.of.the.Galaxy.Mission.Breakout.S03E07.Sisters.Are.Doing.it.for.Themselves.720p.DSNY.WEB-DL.AAC2.0.x264-TVSmash.mkv (537.4 MB)



General
Unique ID : 188052915267091912490327310694552899911 (0x8D79AC8F7907B2B7CAD9DE28226B1147)
Complete name : ./Marvels.Guardians.of.the.Galaxy.Mission.Breakout.S03E07.Sisters.Are.Doing.it.for.Themselves.720p.DSNY.WEB-DL.AAC2.0.x264-TVSmash.mkv
Format : Matroska
Format version : Version 4 / Version 2
File size : 537 MiB
Duration : 22 min 3 s
Overall bit rate : 3 406 kb/s
Encoded date : UTC 2018-04-09 05:10:12
Writing application : mkvmerge v20.0.0 ('I Am The Sun') 32-bit
Writing library : libebml v1.3.5 + libmatroska v1.4.8

Video
ID : 1
Format : AVC
Format/Info : Advanced Video Codec
Format profile : High@L3.1
Format settings : CABAC / 2 Ref Frames
Format settings, CABAC : Yes
Format settings, RefFrames : 2 frames
Codec ID : V_MPEG4/ISO/AVC
Duration : 22 min 3 s
Bit rate : 3 360 kb/s
Width : 1 280 pixels
Height : 720 pixels
Display aspect ratio : 16:9
Frame rate mode : Constant
Frame rate : 23.976 (24000/1001) FPS
Original frame rate : 24.000 FPS
Color space : YUV
Chroma subsampling : 4:2:0
Bit depth : 8 bits
Scan type : Progressive
Bits/(Pixel*Frame) : 0.152
Stream size : 517 MiB (96%)
Writing library : x264 core 148 r2579M 73ae2d1
Encoding settings : cabac=1 / ref=2 / deblock=1:0:0 / analyse=0x3:0x113 / me=hex / subme=2 / psy=1 / psy_rd=1.00:0.00 / mixed_ref=0 / me_range=16 / chroma_me=1 / trellis=0 / 8x8dct=1 / cqm=0 / deadzone=21,11 / fast_pskip=1 / chroma_qp_offset=0 / threads=4 / lookahead_threads=1 / sliced_threads=0 / nr=250 / decimate=1 / interlaced=0 / bluray_compat=0 / stitchable=1 / constrained_intra=0 / bframes=0 / weightp=1 / keyint=250 / keyint_min=24 / scenecut=40 / intra_refresh=0 / rc_lookahead=10 / rc=2pass / mbtree=1 / bitrate=3360 / ratetol=1.0 / qcomp=0.60 / qpmin=5 / qpmax=69 / qpstep=4 / cplxblur=20.0 / qblur=0.5 / ip_ratio=1.40 / aq=1:1.00
Language : English
Default : Yes
Forced : No

Audio
ID : 2
Format : AAC
Format/Info : Advanced Audio Codec
Format profile : HE-AAC / LC
Format settings : Implicit
Codec ID : A_AAC-2
Duration : 22 min 3 s
Bit rate : 127 kb/s
Channel(s) : 2 channels
Channel positions : Front: L R
Sampling rate : 48.0 kHz / 24.0 kHz
Frame rate : 23.438 FPS (1024 SPF)
Compression mode : Lossy
Stream size : 20.0 MiB (4%)
Language : English
Default : Yes
Forced : No

Text
ID : 3
Format : UTF-8
Codec ID : S_TEXT/UTF8
Codec ID/Info : UTF-8 Plain Text
Duration : 21 min 16 s
Bit rate : 69 b/s
Count of elements : 353
Stream size : 10.8 KiB (0%)
Language : English
Default : No
Forced : No





Marvel's Guardians of the Galaxy S03E07


Marvel's Guardians of the Galaxy S03E07


Marvel's Guardians of the Galaxy S03E07


Marvel's Guardians of the Galaxy S03E07


Marvel's Guardians of the Galaxy S03E07

All episodes