Featured TV Shows


Marvel's Guardians of the Galaxy S03E16

Posted By: Tavaz
1080p (FullHD) / WEB-DL IMDb
Marvel's Guardians of the Galaxy S03E16

Marvel's Guardians of the Galaxy S03E16
WEB-DL | MKV | 1920x1080 | English / English | H264 @ 5131 kbps | AAC @ 125 kbps | 22 min 3 s | 891 MiB
Subtitles: English
Genre: Animazione


Peter Quill is Star-Lord, the brash adventurer who, to save the universe from its greatest threats, joins forces with a quartet of disparate misfits — fan-favorite Rocket Raccoon, a tree-like humanoid named Groot, the enigmatic, expert fighter Gamora and the rough edged warrior Drax the Destroyer.

17cee33faff64150bc6d3eb113254d00.mkv (890.6 MB)



General
Unique ID : 246172145086600055996639984163650551800 (0xB93307D36952A2E6C706FDDC5DB43FF8)
Complete name : ./17cee33faff64150bc6d3eb113254d00.mkv
Format : Matroska
Format version : Version 4 / Version 2
File size : 891 MiB
Duration : 22 min 3 s
Overall bit rate : 5 644 kb/s
Encoded date : UTC 2019-05-14 07:38:34
Writing application : mkvmerge v33.0.0 ('A Little Bit of Madness') 64-bit
Writing library : libebml v1.3.7 + libmatroska v1.5.0
Cover : Yes
Attachments : small_cover.jpg / cover.jpg / cover_land.jpg / small_cover_land.jpg

Video
ID : 3
Format : AVC
Format/Info : Advanced Video Codec
Format profile : High@L4
Format settings : CABAC / 4 Ref Frames
Format settings, CABAC : Yes
Format settings, RefFrames : 4 frames
Codec ID : V_MPEG4/ISO/AVC
Duration : 22 min 3 s
Bit rate : 5 132 kb/s
Width : 1 920 pixels
Height : 1 080 pixels
Display aspect ratio : 16:9
Frame rate mode : Constant
Frame rate : 23.976 (24000/1001) FPS
Color space : YUV
Chroma subsampling : 4:2:0
Bit depth : 8 bits
Scan type : Progressive
Bits/(Pixel*Frame) : 0.103
Stream size : 810 MiB (91%)
Language : English
Default : Yes
Forced : No
Color range : Limited
Color primaries : BT.709
Transfer characteristics : BT.709
Matrix coefficients : BT.709

Audio #1
ID : 1
Format : AAC
Format/Info : Advanced Audio Codec
Format profile : LC
Codec ID : A_AAC-2
Duration : 22 min 3 s
Bit rate : 126 kb/s
Channel(s) : 2 channels
Channel positions : Front: L R
Sampling rate : 48.0 kHz
Frame rate : 46.875 FPS (1024 SPF)
Compression mode : Lossy
Delay relative to video : -42 ms
Stream size : 19.8 MiB (2%)
Language : English
Default : Yes
Forced : No

Audio #2
ID : 2
Format : AC-3
Format/Info : Audio Coding 3
Format settings, Endianness : Big
Codec ID : A_AC3
Duration : 22 min 3 s
Bit rate mode : Constant
Bit rate : 384 kb/s
Channel(s) : 6 channels
Channel positions : Front: L C R, Side: L R, LFE
Sampling rate : 48.0 kHz
Frame rate : 31.250 FPS (1536 SPF)
Bit depth : 16 bits
Compression mode : Lossy
Delay relative to video : -42 ms
Stream size : 60.6 MiB (7%)
Language : English
Service kind : Complete Main
Default : No
Forced : No

Text
ID : 4
Format : UTF-8
Codec ID : S_TEXT/UTF8
Codec ID/Info : UTF-8 Plain Text
Duration : 21 min 27 s
Bit rate : 80 b/s
Count of elements : 335
Stream size : 12.7 KiB (0%)
Language : English
Default : Yes
Forced : No





Marvel's Guardians of the Galaxy S03E16


Marvel's Guardians of the Galaxy S03E16


Marvel's Guardians of the Galaxy S03E16


Marvel's Guardians of the Galaxy S03E16


Marvel's Guardians of the Galaxy S03E16

All episodes