Featured TV Shows


Marvel's Guardians of the Galaxy S02E16

Posted By: Tavaz
1080p (FullHD) / WEB-DL IMDb
Marvel's Guardians of the Galaxy S02E16

Marvel's Guardians of the Galaxy S02E16
WEB-DL | MKV | 1920x1080 | English | H264 @ 3650 kbps | AC-3 @ 384 kbps | 22 min 9 s | 635 MiB
Subtitles: Portuguese, Spanish
Genre: Animation

Peter Quill is Star-Lord, the brash adventurer who, to save the universe from its greatest threats, joins forces with a quartet of disparate misfits — fan-favorite Rocket Raccoon, a tree-like humanoid named Groot, the enigmatic, expert fighter Gamora and the rough edged warrior Drax the Destroyer.

Marvels.Guardians.of.the.Galaxy.S02E16.Nova.Me.Nova.You.1080p.NF.WEB-DL.DD5.1.H264-SiGMA.mkv (634.9 MB)



General
Unique ID : 77135660975839873971518189183076273155 (0x3A07C9B579BDE63F664CCE465EA20C03)
Complete name : ./Marvels.Guardians.of.the.Galaxy.S02E16.Nova.Me.Nova.You.1080p.NF.WEB-DL.DD5.1.H264-SiGMA.mkv
Format : Matroska
Format version : Version 4 / Version 2
File size : 635 MiB
Duration : 22 min 9 s
Overall bit rate mode : Variable
Overall bit rate : 4 005 kb/s
Encoded date : UTC 2018-04-02 23:41:48
Writing application : mkvmerge v19.0.0 ('Brave Captain') 64-bit
Writing library : libebml v1.3.5 + libmatroska v1.4.8

Video
ID : 1
Format : AVC
Format/Info : Advanced Video Codec
Format profile : Main@L4
Format settings : CABAC / 3 Ref Frames
Format settings, CABAC : Yes
Format settings, RefFrames : 3 frames
Codec ID : V_MPEG4/ISO/AVC
Duration : 22 min 9 s
Bit rate mode : Variable
Bit rate : 3 650 kb/s
Maximum bit rate : 5 475 kb/s
Width : 1 920 pixels
Height : 1 080 pixels
Display aspect ratio : 16:9
Frame rate mode : Constant
Frame rate : 23.976 (24000/1001) FPS
Color space : YUV
Chroma subsampling : 4:2:0
Bit depth : 8 bits
Scan type : Progressive
Bits/(Pixel*Frame) : 0.073
Stream size : 574 MiB (90%)
Writing library : x264 core 148 r2715 7e75228
Encoding settings : cabac=1 / ref=3 / deblock=1:0:0 / analyse=0x1:0x111 / me=umh / subme=10 / psy=1 / psy_rd=1.00:0.00 / mixed_ref=1 / me_range=24 / chroma_me=1 / trellis=2 / 8x8dct=0 / cqm=0 / deadzone=21,11 / fast_pskip=1 / chroma_qp_offset=-2 / threads=8 / lookahead_threads=1 / sliced_threads=0 / nr=0 / decimate=1 / interlaced=0 / bluray_compat=0 / stitchable=1 / constrained_intra=0 / bframes=2 / b_pyramid=0 / b_adapt=2 / b_bias=0 / direct=3 / weightb=1 / open_gop=0 / weightp=2 / keyint=48 / keyint_min=25 / scenecut=0 / intra_refresh=0 / rc_lookahead=48 / rc=2pass / mbtree=1 / bitrate=3650 / ratetol=1.0 / qcomp=0.50 / qpmin=6 / qpmax=51 / qpstep=4 / cplxblur=20.0 / qblur=0.5 / vbv_maxrate=5475 / vbv_bufsize=7300 / nal_hrd=vbr / filler=0 / ip_ratio=1.40 / aq=1:1.00
Default : Yes
Forced : No

Audio
ID : 2
Format : AC-3
Format/Info : Audio Coding 3
Format settings, Endianness : Big
Codec ID : A_AC3
Duration : 22 min 9 s
Bit rate mode : Constant
Bit rate : 384 kb/s
Channel(s) : 6 channels
Channel positions : Front: L C R, Side: L R, LFE
Sampling rate : 48.0 kHz
Frame rate : 31.250 FPS (1536 SPF)
Bit depth : 16 bits
Compression mode : Lossy
Stream size : 60.9 MiB (10%)
Language : English
Service kind : Complete Main
Default : Yes
Forced : No

Text #1
ID : 3
Format : UTF-8
Codec ID : S_TEXT/UTF8
Codec ID/Info : UTF-8 Plain Text
Duration : 21 min 34 s
Bit rate : 56 b/s
Count of elements : 273
Stream size : 8.94 KiB (0%)
Title : Brazilian
Language : Portuguese
Default : No
Forced : No

Text #2
ID : 4
Format : UTF-8
Codec ID : S_TEXT/UTF8
Codec ID/Info : UTF-8 Plain Text
Duration : 21 min 34 s
Bit rate : 56 b/s
Count of elements : 273
Stream size : 8.94 KiB (0%)
Title : Brazilian
Language : Portuguese
Default : No
Forced : No

Text #3
ID : 5
Format : UTF-8
Codec ID : S_TEXT/UTF8
Codec ID/Info : UTF-8 Plain Text
Duration : 21 min 34 s
Bit rate : 60 b/s
Count of elements : 274
Stream size : 9.52 KiB (0%)
Language : Spanish
Default : No
Forced : No

Text #4
ID : 6
Format : UTF-8
Codec ID : S_TEXT/UTF8
Codec ID/Info : UTF-8 Plain Text
Duration : 21 min 34 s
Bit rate : 60 b/s
Count of elements : 274
Stream size : 9.52 KiB (0%)
Language : Spanish
Default : No
Forced : No





Marvel's Guardians of the Galaxy S02E16


Marvel's Guardians of the Galaxy S02E16


Marvel's Guardians of the Galaxy S02E16


Marvel's Guardians of the Galaxy S02E16


Marvel's Guardians of the Galaxy S02E16

All episodes