Featured TV Shows


Marvel's Guardians of the Galaxy S02E07

Posted By: Tavaz
720p (HD) / WEBRip IMDb
Marvel's Guardians of the Galaxy S02E07

Marvel's Guardians of the Galaxy S02E07
WEBRip | MKV | 1280x720 | English | H264 @ 3360 kbps | AAC @ 126 kbps | 22 min 3 s | 533 MiB
Subtitles: English
Genre: Animation

Peter Quill is Star-Lord, the brash adventurer who, to save the universe from its greatest threats, joins forces with a quartet of disparate misfits — fan-favorite Rocket Raccoon, a tree-like humanoid named Groot, the enigmatic, expert fighter Gamora and the rough edged warrior Drax the Destroyer.

a35a81a0e2d44139b890d97d9596a82f.mkv (533.3 MB)



General
Unique ID : 191587467216667146241583681060836284422 (0x9022676D14A5D691817C52859CA91806)
Complete name : ./a35a81a0e2d44139b890d97d9596a82f.mkv
Format : Matroska
Format version : Version 4 / Version 2
File size : 533 MiB
Duration : 22 min 3 s
Overall bit rate : 3 380 kb/s
Encoded date : UTC 2017-04-15 07:48:21
Writing application : mkvmerge v10.0.0 ('To Drown In You') 64bit
Writing library : libebml v1.3.4 + libmatroska v1.4.5

Video
ID : 1
Format : AVC
Format/Info : Advanced Video Codec
Format profile : High@L3.1
Format settings : CABAC / 2 Ref Frames
Format settings, CABAC : Yes
Format settings, RefFrames : 2 frames
Codec ID : V_MPEG4/ISO/AVC
Duration : 22 min 3 s
Bit rate : 3 360 kb/s
Width : 1 280 pixels
Height : 720 pixels
Display aspect ratio : 16:9
Frame rate mode : Constant
Frame rate : 23.976 (24000/1001) FPS
Original frame rate : 24.000 FPS
Color space : YUV
Chroma subsampling : 4:2:0
Bit depth : 8 bits
Scan type : Progressive
Bits/(Pixel*Frame) : 0.152
Stream size : 513 MiB (96%)
Writing library : x264 core 148 r2579M 73ae2d1
Encoding settings : cabac=1 / ref=2 / deblock=1:0:0 / analyse=0x3:0x113 / me=hex / subme=2 / psy=1 / psy_rd=1.00:0.00 / mixed_ref=0 / me_range=16 / chroma_me=1 / trellis=0 / 8x8dct=1 / cqm=0 / deadzone=21,11 / fast_pskip=1 / chroma_qp_offset=0 / threads=4 / lookahead_threads=1 / sliced_threads=0 / nr=250 / decimate=1 / interlaced=0 / bluray_compat=0 / stitchable=1 / constrained_intra=0 / bframes=0 / weightp=1 / keyint=250 / keyint_min=24 / scenecut=40 / intra_refresh=0 / rc_lookahead=10 / rc=2pass / mbtree=1 / bitrate=3360 / ratetol=1.0 / qcomp=0.60 / qpmin=5 / qpmax=69 / qpstep=4 / cplxblur=20.0 / qblur=0.5 / ip_ratio=1.40 / aq=1:1.00
Language : English
Default : Yes
Forced : No

Audio
ID : 2
Format : AAC
Format/Info : Advanced Audio Codec
Format profile : HE-AAC / LC
Format settings : Implicit
Codec ID : A_AAC-2
Duration : 22 min 3 s
Bit rate : 127 kb/s
Channel(s) : 2 channels
Channel positions : Front: L R
Sampling rate : 48.0 kHz / 24.0 kHz
Frame rate : 23.438 FPS (1024 SPF)
Compression mode : Lossy
Stream size : 20.0 MiB (4%)
Language : English
Default : Yes
Forced : No

Text
ID : 3
Format : UTF-8
Codec ID : S_TEXT/UTF8
Codec ID/Info : UTF-8 Plain Text
Duration : 21 min 32 s
Bit rate : 79 b/s
Count of elements : 396
Stream size : 12.6 KiB (0%)
Language : English
Default : Yes
Forced : No





Marvel's Guardians of the Galaxy S02E07


Marvel's Guardians of the Galaxy S02E07


Marvel's Guardians of the Galaxy S02E07


Marvel's Guardians of the Galaxy S02E07


Marvel's Guardians of the Galaxy S02E07

All episodes