Featured TV Shows


Marvel's Guardians of the Galaxy S03E03

Posted By: Tavaz
SD / WEB-DL IMDb
Marvel's Guardians of the Galaxy S03E03

Marvel's Guardians of the Galaxy S03E03
WEB-DL | MOV | 720x400 | English | H264 @ 663 kbps | AAC @ 256 kbps | 22 min 3 s | 146 MiB
Genre: Animation

Peter Quill is Star-Lord, the brash adventurer who, to save the universe from its greatest threats, joins forces with a quartet of disparate misfits — fan-favorite Rocket Raccoon, a tree-like humanoid named Groot, the enigmatic, expert fighter Gamora and the rough edged warrior Drax the Destroyer.

Marvels.Guardians.of.the.Galaxy.S03E03.WEB-DL.x264-ION10.mp4 (146.0 MB)



General
Complete name : ./Marvels.Guardians.of.the.Galaxy.S03E03.WEB-DL.x264-ION10.mp4
Format : MPEG-4
Format profile : Base Media
Codec ID : isom (isom/iso2/avc1/mp41)
File size : 146 MiB
Duration : 22 min 3 s
Overall bit rate : 925 kb/s
Movie name : RARBG - Marvels.Guardians.of.the.Galaxy.S03E03.WEB-DL.x264-ION10
Encoded date : UTC 2018-04-16 19:12:39
Tagged date : UTC 2018-04-16 19:12:39
Writing application : Lavf57.83.100
Comment : RARBG - Marvels.Guardians.of.the.Galaxy.S03E03.WEB-DL.x264-ION10

Video
ID : 1
Format : AVC
Format/Info : Advanced Video Codec
Format profile : High@L3.1
Format settings : CABAC / 5 Ref Frames
Format settings, CABAC : Yes
Format settings, RefFrames : 5 frames
Codec ID : avc1
Codec ID/Info : Advanced Video Coding
Duration : 22 min 3 s
Bit rate : 664 kb/s
Width : 720 pixels
Height : 400 pixels
Display aspect ratio : 16:9
Frame rate mode : Constant
Frame rate : 23.976 (24000/1001) FPS
Color space : YUV
Chroma subsampling : 4:2:0
Bit depth : 8 bits
Scan type : Progressive
Bits/(Pixel*Frame) : 0.096
Stream size : 105 MiB (72%)
Title : RARBG - Marvels.Guardians.of.the.Galaxy.S03E03.WEB-DL.x264-ION10
Writing library : x264 core 152 r2851M ba24899
Encoding settings : cabac=1 / ref=5 / deblock=1:-1:-1 / analyse=0x3:0x113 / me=umh / subme=9 / psy=1 / psy_rd=1.00:0.15 / mixed_ref=1 / me_range=16 / chroma_me=1 / trellis=2 / 8x8dct=1 / cqm=0 / deadzone=21,11 / fast_pskip=1 / chroma_qp_offset=-3 / threads=12 / lookahead_threads=1 / sliced_threads=0 / nr=0 / decimate=1 / interlaced=0 / bluray_compat=0 / constrained_intra=0 / bframes=3 / b_pyramid=2 / b_adapt=2 / b_bias=0 / direct=3 / weightb=1 / open_gop=0 / weightp=2 / keyint=250 / keyint_min=23 / scenecut=40 / intra_refresh=0 / rc_lookahead=50 / rc=crf / mbtree=1 / crf=19.0 / qcomp=0.60 / qpmin=0 / qpmax=69 / qpstep=4 / ip_ratio=1.40 / aq=1:1.00
Language : English
Encoded date : UTC 2018-04-16 19:12:39
Tagged date : UTC 2018-04-16 19:12:39

Audio
ID : 2
Format : AAC
Format/Info : Advanced Audio Codec
Format profile : LC
Codec ID : mp4a-40-2
Duration : 22 min 3 s
Duration_LastFrame : -11 ms
Bit rate mode : Constant
Bit rate : 256 kb/s
Channel(s) : 2 channels
Channel positions : Front: L R
Sampling rate : 48.0 kHz
Frame rate : 46.875 FPS (1024 SPF)
Compression mode : Lossy
Stream size : 40.4 MiB (28%)
Title : RARBG - Marvels.Guardians.of.the.Galaxy.S03E03.WEB-DL.x264-ION10
Language : English
Default : Yes
Alternate group : 1
Encoded date : UTC 2018-04-16 19:12:39
Tagged date : UTC 2018-04-16 19:12:39





Marvel's Guardians of the Galaxy S03E03


Marvel's Guardians of the Galaxy S03E03


Marvel's Guardians of the Galaxy S03E03


Marvel's Guardians of the Galaxy S03E03


Marvel's Guardians of the Galaxy S03E03

All episodes