Marvel's Iron Fist S01E03

Posted By: Tavaz
720p (HD) / BDRip IMDb
Marvel's Iron Fist S01E03

Marvel's Iron Fist S01E03
WEB-DL | MKV | 1280x720 | German / English | H264 @ 3026 kbps | DTS @ 1509 kbps | 58 min 58 s | 2.13 GiB
Subtitles: German
Genre: Crime, Drama

Danny Rand resurfaces 15 years after being presumed dead. Now, with the power of the Iron Fist, he seeks to reclaim his past and fulfill his destiny.

tv4a-ironfist.s01e03-720p-eng.idx (33.1 KB)
tv4a-ironfist.s01e03-720p.sub (3.7 MB)
tv4a-ironfist.s01e03-720p-forced.sub (52.0 KB)
tv4a-ironfist.s01e03-720p-forced.idx (1.3 KB)
tv4a-ironfist.s01e03-720p-sample.mkv (60.8 MB)
tv4a-ironfist.s01e03-720p.idx (26.5 KB)
tv4a-ironfist.s01e03-720p.mkv (2.1 GB)
tv4a-ironfist.s01e03-720p-eng.sub (4.4 MB)



General
Unique ID : 266637002804488754521038161581409602573 (0xC8986B365D405DB2AA8346C4F5C08C0D)
Complete name : ./tv4a-ironfist.s01e03-720p.mkv
Format : Matroska
Format version : Version 4 / Version 2
File size : 2.13 GiB
Duration : 58 min 58 s
Overall bit rate : 5 175 kb/s
Encoded date : UTC 2018-05-26 07:00:28
Writing application : mkvmerge v23.0.0 ('The Bride Said No') 64-bit
Writing library : libebml v1.3.6 + libmatroska v1.4.9

Video
ID : 1
Format : AVC
Format/Info : Advanced Video Codec
Format profile : High@L4.1
Format settings : CABAC / 5 Ref Frames
Format settings, CABAC : Yes
Format settings, RefFrames : 5 frames
Codec ID : V_MPEG4/ISO/AVC
Duration : 58 min 54 s
Bit rate : 3 026 kb/s
Width : 1 280 pixels
Height : 720 pixels
Display aspect ratio : 16:9
Frame rate mode : Constant
Frame rate : 23.976 (24000/1001) FPS
Color space : YUV
Chroma subsampling : 4:2:0
Bit depth : 8 bits
Scan type : Progressive
Bits/(Pixel*Frame) : 0.137
Stream size : 1.25 GiB (58%)
Writing library : x264 core 155 r2901 7d0ff22
Encoding settings : cabac=1 / ref=5 / deblock=1:-3:-3 / analyse=0x3:0x113 / me=umh / subme=7 / psy=1 / psy_rd=1.00:0.00 / mixed_ref=1 / me_range=16 / chroma_me=1 / trellis=1 / 8x8dct=1 / cqm=0 / deadzone=21,11 / fast_pskip=0 / chroma_qp_offset=-2 / threads=22 / lookahead_threads=3 / sliced_threads=0 / nr=0 / decimate=1 / interlaced=0 / bluray_compat=0 / constrained_intra=0 / bframes=3 / b_pyramid=2 / b_adapt=1 / b_bias=0 / direct=3 / weightb=1 / open_gop=0 / weightp=2 / keyint=250 / keyint_min=23 / scenecut=40 / intra_refresh=0 / rc_lookahead=40 / rc=crf / mbtree=1 / crf=20.0 / qcomp=0.60 / qpmin=0 / qpmax=69 / qpstep=4 / ip_ratio=1.40 / aq=1:1.00
Default : Yes
Forced : No

Audio #1
ID : 2
Format : DTS
Format/Info : Digital Theater Systems
Mode : 16
Format settings, Endianness : Big
Codec ID : A_DTS
Duration : 58 min 58 s
Bit rate mode : Constant
Bit rate : 1 509 kb/s
Channel(s) : 6 channels
Channel positions : Front: L C R, Side: L R, LFE
Sampling rate : 48.0 kHz
Frame rate : 93.750 FPS (512 SPF)
Bit depth : 24 bits
Compression mode : Lossy
Stream size : 637 MiB (29%)
Language : German
Default : Yes
Forced : No

Audio #2
ID : 3
Format : AC-3
Format/Info : Audio Coding 3
Format settings, Endianness : Big
Codec ID : A_AC3
Duration : 58 min 58 s
Bit rate mode : Constant
Bit rate : 640 kb/s
Channel(s) : 6 channels
Channel positions : Front: L C R, Side: L R, LFE
Sampling rate : 48.0 kHz
Frame rate : 31.250 FPS (1536 SPF)
Bit depth : 16 bits
Compression mode : Lossy
Stream size : 270 MiB (12%)
Language : English
Service kind : Complete Main
Default : No
Forced : No

Text
ID : 4
Format : UTF-8
Codec ID : S_TEXT/UTF8
Codec ID/Info : UTF-8 Plain Text
Duration : 51 min 49 s
Bit rate : 0 b/s
Count of elements : 7
Stream size : 215 Bytes (0%)
Language : German
Default : Yes
Forced : Yes





Marvel's Iron Fist S01E03


Marvel's Iron Fist S01E03


Marvel's Iron Fist S01E03


Marvel's Iron Fist S01E03


Marvel's Iron Fist S01E03

All episodes