Index
# A B C D E F G H I J K L M N O P Q R S T U V W Y Z
Tags
Language
Tags

Featured TV Shows


Marvel's Luke Cage S01E01

Posted By: Tavaz
720p (HD) / BDRip IMDb
Marvel's Luke Cage S01E01

Marvel's Luke Cage S01E01
BDRip | MKV | 1280x720 | English | H264 @ 2458 kbps | AC-3 @ 384 kbps | 54 min 5 s | 1.07 GiB
Subtitles: English
Genre: Drama

Given superstrength and durability by a sabotaged experiment, a wrongly accused man escapes prison to become a superhero for hire.

783149a7eacb4ff5bbd879aa8b9110cf.mkv (1.1 GB)



General
Unique ID : 249925834946884250619121684508184198478 (0xBC05F7064F1E9AF5ADB60B834808BD4E)
Complete name : ./783149a7eacb4ff5bbd879aa8b9110cf.mkv
Format : Matroska
Format version : Version 2
File size : 1.07 GiB
Duration : 54 min 5 s
Overall bit rate : 2 843 kb/s
Encoded date : UTC 2018-06-23 22:43:05
Writing application : mkvmerge v4.9.1 ('Ich will') built on Jul 11 2011 23:53:15
Writing library : libebml v1.2.1 + libmatroska v1.1.1

Video
ID : 1
Format : AVC
Format/Info : Advanced Video Codec
Format profile : High@L4.1
Format settings : CABAC / 8 Ref Frames
Format settings, CABAC : Yes
Format settings, RefFrames : 8 frames
Codec ID : V_MPEG4/ISO/AVC
Duration : 54 min 5 s
Bit rate : 2 458 kb/s
Width : 1 280 pixels
Height : 720 pixels
Display aspect ratio : 16:9
Frame rate mode : Constant
Frame rate : 23.976 FPS
Color space : YUV
Chroma subsampling : 4:2:0
Bit depth : 8 bits
Scan type : Progressive
Bits/(Pixel*Frame) : 0.111
Stream size : 929 MiB (85%)
Writing library : x264 core 148 r2638 7599210
Encoding settings : cabac=1 / ref=8 / deblock=1:0:0 / analyse=0x3:0x113 / me=umh / subme=9 / psy=1 / psy_rd=1.00:0.00 / mixed_ref=1 / me_range=16 / chroma_me=1 / trellis=1 / 8x8dct=1 / cqm=0 / deadzone=21,11 / fast_pskip=1 / chroma_qp_offset=-2 / threads=8 / lookahead_threads=1 / sliced_threads=0 / nr=0 / decimate=1 / interlaced=0 / bluray_compat=0 / constrained_intra=0 / bframes=5 / b_pyramid=2 / b_adapt=1 / b_bias=0 / direct=1 / weightb=1 / open_gop=0 / weightp=2 / keyint=250 / keyint_min=23 / scenecut=40 / intra_refresh=0 / rc_lookahead=40 / rc=2pass / mbtree=1 / bitrate=2458 / ratetol=1.0 / qcomp=0.60 / qpmin=0 / qpmax=69 / qpstep=4 / cplxblur=20.0 / qblur=0.5 / vbv_maxrate=20000 / vbv_bufsize=15000 / nal_hrd=none / filler=0 / ip_ratio=1.40 / aq=1:1.00
Language : English
Default : Yes
Forced : No
Color range : Limited
Color primaries : BT.709
Transfer characteristics : BT.709
Matrix coefficients : BT.709

Audio
ID : 2
Format : AC-3
Format/Info : Audio Coding 3
Format settings, Endianness : Big
Codec ID : A_AC3
Duration : 54 min 5 s
Bit rate mode : Constant
Bit rate : 384 kb/s
Channel(s) : 6 channels
Channel positions : Front: L C R, Side: L R, LFE
Sampling rate : 48.0 kHz
Frame rate : 31.250 FPS (1536 SPF)
Bit depth : 16 bits
Compression mode : Lossy
Stream size : 149 MiB (14%)
Language : English
Service kind : Complete Main
Default : Yes
Forced : Yes

Text #1
ID : 3
Format : UTF-8
Codec ID : S_TEXT/UTF8
Codec ID/Info : UTF-8 Plain Text
Language : English
Default : No
Forced : No
Statistics Tags Issue : no_variable_data 1970-01-01 00:00:00 / mkvmerge v4.9.1 ('Ich will') built on Jul 11 2011 23:53:15 2018-06-23 22:43:05
FromStats_BitRate : 53
FromStats_Duration : 00:50:53.259000000
FromStats_FrameCount : 645
FromStats_StreamSize : 20427

Text #2
ID : 4
Format : UTF-8
Codec ID : S_TEXT/UTF8
Codec ID/Info : UTF-8 Plain Text
Title : SDH
Language : English
Default : No
Forced : No
Statistics Tags Issue : no_variable_data 1970-01-01 00:00:00 / mkvmerge v4.9.1 ('Ich will') built on Jul 11 2011 23:53:15 2018-06-23 22:43:05
FromStats_BitRate : 58
FromStats_Duration : 00:52:42.493000000
FromStats_FrameCount : 738
FromStats_StreamSize : 23261

Menu
00:00:00.000 : en:00:00:00.000
00:01:24.751 : en:00:01:24.751
00:10:05.313 : en:00:10:05.313
00:20:13.504 : en:00:20:13.504
00:30:37.627 : en:00:30:37.627
00:40:05.570 : en:00:40:05.570
00:52:53.545 : en:00:52:53.545





Marvel's Luke Cage S01E01


Marvel's Luke Cage S01E01


Marvel's Luke Cage S01E01


Marvel's Luke Cage S01E01


Marvel's Luke Cage S01E01

All episodes