Index
# A B C D E F G H I J K L M N O P Q R S T U V W Y Z
Tags
Language
Tags

Featured TV Shows


Marvel's Luke Cage S01E03

Posted By:
720p (HD) / BDRip IMDb
Marvel's Luke Cage S01E03

Marvel's Luke Cage S01E03
BDRip | MKV | 1280x720 | English | H264 @ 2606 kbps | AC-3 @ 384 kbps | 56 min 4 s | 1.17 GiB
Subtitles: English
Genre: Drama

Given superstrength and durability by a sabotaged experiment, a wrongly accused man escapes prison to become a superhero for hire.

da528810e4024091a58b28133a41d359.mkv (1.2 GB)



General
Unique ID : 245870967559005074626758100840314986210 (0xB8F906A0941F69CAA5CBA2FAC4AE5EE2)
Complete name : ./da528810e4024091a58b28133a41d359.mkv
Format : Matroska
Format version : Version 2
File size : 1.17 GiB
Duration : 56 min 4 s
Overall bit rate : 2 991 kb/s
Encoded date : UTC 2018-06-24 02:20:55
Writing application : mkvmerge v4.9.1 ('Ich will') built on Jul 11 2011 23:53:15
Writing library : libebml v1.2.1 + libmatroska v1.1.1

Video
ID : 1
Format : AVC
Format/Info : Advanced Video Codec
Format profile : High@L4.1
Format settings : CABAC / 8 Ref Frames
Format settings, CABAC : Yes
Format settings, RefFrames : 8 frames
Codec ID : V_MPEG4/ISO/AVC
Duration : 56 min 4 s
Bit rate : 2 606 kb/s
Width : 1 280 pixels
Height : 720 pixels
Display aspect ratio : 16:9
Frame rate mode : Constant
Frame rate : 23.976 FPS
Color space : YUV
Chroma subsampling : 4:2:0
Bit depth : 8 bits
Scan type : Progressive
Bits/(Pixel*Frame) : 0.118
Stream size : 1 022 MiB (85%)
Writing library : x264 core 148 r2638 7599210
Encoding settings : cabac=1 / ref=8 / deblock=1:0:0 / analyse=0x3:0x113 / me=umh / subme=9 / psy=1 / psy_rd=1.00:0.00 / mixed_ref=1 / me_range=16 / chroma_me=1 / trellis=1 / 8x8dct=1 / cqm=0 / deadzone=21,11 / fast_pskip=1 / chroma_qp_offset=-2 / threads=8 / lookahead_threads=1 / sliced_threads=0 / nr=0 / decimate=1 / interlaced=0 / bluray_compat=0 / constrained_intra=0 / bframes=5 / b_pyramid=2 / b_adapt=1 / b_bias=0 / direct=1 / weightb=1 / open_gop=0 / weightp=2 / keyint=250 / keyint_min=23 / scenecut=40 / intra_refresh=0 / rc_lookahead=40 / rc=2pass / mbtree=1 / bitrate=2606 / ratetol=1.0 / qcomp=0.60 / qpmin=0 / qpmax=69 / qpstep=4 / cplxblur=20.0 / qblur=0.5 / vbv_maxrate=20000 / vbv_bufsize=15000 / nal_hrd=none / filler=0 / ip_ratio=1.40 / aq=1:1.00
Language : English
Default : Yes
Forced : No
Color range : Limited
Color primaries : BT.709
Transfer characteristics : BT.709
Matrix coefficients : BT.709

Audio
ID : 2
Format : AC-3
Format/Info : Audio Coding 3
Format settings, Endianness : Big
Codec ID : A_AC3
Duration : 56 min 4 s
Bit rate mode : Constant
Bit rate : 384 kb/s
Channel(s) : 6 channels
Channel positions : Front: L C R, Side: L R, LFE
Sampling rate : 48.0 kHz
Frame rate : 31.250 FPS (1536 SPF)
Bit depth : 16 bits
Compression mode : Lossy
Stream size : 154 MiB (13%)
Language : English
Service kind : Complete Main
Default : Yes
Forced : Yes

Text #1
ID : 3
Format : UTF-8
Codec ID : S_TEXT/UTF8
Codec ID/Info : UTF-8 Plain Text
Language : English
Default : No
Forced : No
Statistics Tags Issue : no_variable_data 1970-01-01 00:00:00 / mkvmerge v4.9.1 ('Ich will') built on Jul 11 2011 23:53:15 2018-06-24 02:20:55
FromStats_BitRate : 56
FromStats_Duration : 00:54:16.002000000
FromStats_FrameCount : 679
FromStats_StreamSize : 22918

Text #2
ID : 4
Format : UTF-8
Codec ID : S_TEXT/UTF8
Codec ID/Info : UTF-8 Plain Text
Title : SDH
Language : English
Default : No
Forced : No
Statistics Tags Issue : no_variable_data 1970-01-01 00:00:00 / mkvmerge v4.9.1 ('Ich will') built on Jul 11 2011 23:53:15 2018-06-24 02:20:55
FromStats_BitRate : 61
FromStats_Duration : 00:54:41.695000000
FromStats_FrameCount : 770
FromStats_StreamSize : 25127

Menu
00:00:00.000 : en:00:00:00.000
00:02:09.087 : en:00:02:09.087
00:07:28.990 : en:00:07:28.990
00:20:57.965 : en:00:20:57.965
00:31:02.819 : en:00:31:02.819
00:43:59.178 : en:00:43:59.178
00:54:53.165 : en:00:54:53.165





Marvel's Luke Cage S01E03


Marvel's Luke Cage S01E03


Marvel's Luke Cage S01E03


Marvel's Luke Cage S01E03


Marvel's Luke Cage S01E03

All episodes