Index
# A B C D E F G H I J K L M N O P Q R S T U V W Y Z
Tags
Language
Tags

Featured TV Shows


Marvel's Luke Cage S01E05

Posted By: Tavaz
720p (HD) / BDRip IMDb
Marvel's Luke Cage S01E05

Marvel's Luke Cage S01E05
BDRip | MKV | 1280x720 | English | H264 @ 2613 kbps | AC-3 @ 384 kbps | 51 min 16 s | 1.07 GiB
Subtitles: English
Genre: Drama

Given superstrength and durability by a sabotaged experiment, a wrongly accused man escapes prison to become a superhero for hire.

4c612bad696c4fa18abc98787a3dbfbf.mkv (1.1 GB)



General
Unique ID : 192777910977971553939103619252284609437 (0x9107ACD5C56B8C62ACADAC5AAABCD39D)
Complete name : ./4c612bad696c4fa18abc98787a3dbfbf.mkv
Format : Matroska
Format version : Version 2
File size : 1.07 GiB
Duration : 51 min 16 s
Overall bit rate : 2 997 kb/s
Encoded date : UTC 2018-06-24 04:52:17
Writing application : mkvmerge v4.9.1 ('Ich will') built on Jul 11 2011 23:53:15
Writing library : libebml v1.2.1 + libmatroska v1.1.1

Video
ID : 1
Format : AVC
Format/Info : Advanced Video Codec
Format profile : High@L4.1
Format settings : CABAC / 8 Ref Frames
Format settings, CABAC : Yes
Format settings, RefFrames : 8 frames
Codec ID : V_MPEG4/ISO/AVC
Duration : 51 min 16 s
Bit rate : 2 613 kb/s
Width : 1 280 pixels
Height : 720 pixels
Display aspect ratio : 16:9
Frame rate mode : Constant
Frame rate : 23.976 FPS
Color space : YUV
Chroma subsampling : 4:2:0
Bit depth : 8 bits
Scan type : Progressive
Bits/(Pixel*Frame) : 0.118
Stream size : 936 MiB (85%)
Writing library : x264 core 148 r2638 7599210
Encoding settings : cabac=1 / ref=8 / deblock=1:0:0 / analyse=0x3:0x113 / me=umh / subme=9 / psy=1 / psy_rd=1.00:0.00 / mixed_ref=1 / me_range=16 / chroma_me=1 / trellis=1 / 8x8dct=1 / cqm=0 / deadzone=21,11 / fast_pskip=1 / chroma_qp_offset=-2 / threads=8 / lookahead_threads=1 / sliced_threads=0 / nr=0 / decimate=1 / interlaced=0 / bluray_compat=0 / constrained_intra=0 / bframes=5 / b_pyramid=2 / b_adapt=1 / b_bias=0 / direct=1 / weightb=1 / open_gop=0 / weightp=2 / keyint=250 / keyint_min=23 / scenecut=40 / intra_refresh=0 / rc_lookahead=40 / rc=2pass / mbtree=1 / bitrate=2613 / ratetol=1.0 / qcomp=0.60 / qpmin=0 / qpmax=69 / qpstep=4 / cplxblur=20.0 / qblur=0.5 / vbv_maxrate=20000 / vbv_bufsize=15000 / nal_hrd=none / filler=0 / ip_ratio=1.40 / aq=1:1.00
Language : English
Default : Yes
Forced : No
Color range : Limited
Color primaries : BT.709
Transfer characteristics : BT.709
Matrix coefficients : BT.709

Audio
ID : 2
Format : AC-3
Format/Info : Audio Coding 3
Format settings, Endianness : Big
Codec ID : A_AC3
Duration : 51 min 16 s
Bit rate mode : Constant
Bit rate : 384 kb/s
Channel(s) : 6 channels
Channel positions : Front: L C R, Side: L R, LFE
Sampling rate : 48.0 kHz
Frame rate : 31.250 FPS (1536 SPF)
Bit depth : 16 bits
Compression mode : Lossy
Stream size : 141 MiB (13%)
Language : English
Service kind : Complete Main
Default : Yes
Forced : Yes

Text #1
ID : 3
Format : UTF-8
Codec ID : S_TEXT/UTF8
Codec ID/Info : UTF-8 Plain Text
Language : English
Default : No
Forced : No
Statistics Tags Issue : no_variable_data 1970-01-01 00:00:00 / mkvmerge v4.9.1 ('Ich will') built on Jul 11 2011 23:53:15 2018-06-24 04:52:17
FromStats_BitRate : 58
FromStats_Duration : 00:46:38.838000000
FromStats_FrameCount : 623
FromStats_StreamSize : 20412

Text #2
ID : 4
Format : UTF-8
Codec ID : S_TEXT/UTF8
Codec ID/Info : UTF-8 Plain Text
Title : SDH
Language : English
Default : No
Forced : No
Statistics Tags Issue : no_variable_data 1970-01-01 00:00:00 / mkvmerge v4.9.1 ('Ich will') built on Jul 11 2011 23:53:15 2018-06-24 04:52:17
FromStats_BitRate : 59
FromStats_Duration : 00:49:52.990000000
FromStats_FrameCount : 695
FromStats_StreamSize : 22251

Menu
00:00:00.000 : en:00:00:00.000
00:01:24.084 : en:00:01:24.084
00:08:19.290 : en:00:08:19.290
00:18:40.286 : en:00:18:40.286
00:29:36.692 : en:00:29:36.692
00:38:04.240 : en:00:38:04.240
00:50:04.585 : en:00:50:04.585





Marvel's Luke Cage S01E05


Marvel's Luke Cage S01E05


Marvel's Luke Cage S01E05


Marvel's Luke Cage S01E05


Marvel's Luke Cage S01E05

All episodes