Index
# A B C D E F G H I J K L M N O P Q R S T U V W Y Z
Tags
Language
Tags

Featured TV Shows


Marvel's Luke Cage S01E06

Posted By: Tavaz
1080p (FullHD) / BDRip IMDb
Marvel's Luke Cage S01E06

Marvel's Luke Cage S01E06
BDRip | MKV | 1920x1080 | English | H265 @ 12221 kbps | DTS | 52 min 46 s | 5.86 GiB
Subtitles: Deutsch, 日本語, English
Genre: Drama, Crime


Given superstrength and durability by a sabotaged experiment, a wrongly accused man escapes prison to become a superhero for hire.

1f65e4c2837b6b77141724effc147cf8.mkv (5.9 GB)



General
Unique ID : 200386768223106398615675786337663306159 (0x96C11675FF26BB5ABF6DCB15F877C9AF)
Complete name : ./1f65e4c2837b6b77141724effc147cf8.mkv
Format : Matroska
Format version : Version 4 / Version 2
File size : 5.86 GiB
Duration : 52 min 46 s
Overall bit rate : 15.9 Mb/s
Movie name : Marvel's Luke Cage S01E06 Suckas Need Bodyguards 1080p BDrip x265 DTS-HD MA 5.1 D0ct0rLew[SEV]
Encoded date : UTC 2020-10-05 21:07:23
Writing application : mkvmerge v17.0.0 ('Be Ur Friend') 64-bit
Writing library : libebml v1.3.5 + libmatroska v1.4.8
Attachments : StintUltraCondensed-lL0e.ttf

Video
ID : 1
Format : HEVC
Format/Info : High Efficiency Video Coding
Format profile : Main 10@L4@Main
Codec ID : V_MPEGH/ISO/HEVC
Duration : 52 min 45 s
Bit rate : 12.2 Mb/s
Width : 1 920 pixels
Height : 1 080 pixels
Display aspect ratio : 16:9
Frame rate mode : Constant
Frame rate : 23.976 (24000/1001) FPS
Color space : YUV
Chroma subsampling : 4:2:0
Bit depth : 10 bits
Bits/(Pixel*Frame) : 0.246
Stream size : 4.50 GiB (77%)
Writing library : x265 3.4+6-g73f96ff39:[Windows][GCC 11.0.0][64 bit] 10bit
Encoding settings : cpuid=1049583 / frame-threads=3 / numa-pools=8 / wpp / no-pmode / no-pme / no-psnr / no-ssim / log-level=2 / input-csp=1 / input-res=1920x1080 / interlace=0 / total-frames=1421 / level-idc=0 / high-tier=1 / uhd-bd=0 / ref=5 / no-allow-non-conformance / no-repeat-headers / annexb / no-aud / no-hrd / info / hash=0 / no-temporal-layers / open-gop / min-keyint=24 / keyint=240 / gop-lookahead=0 / bframes=16 / b-adapt=2 / b-pyramid / bframe-bias=0 / rc-lookahead=90 / lookahead-slices=0 / scenecut=40 / hist-scenecut=0 / radl=0 / no-splice / no-intra-refresh / ctu=64 / min-cu-size=8 / no-rect / no-amp / max-tu-size=32 / tu-inter-depth=4 / tu-intra-depth=4 / limit-tu=4 / rdoq-level=2 / dynamic-rd=0.00 / no-ssim-rd / signhide / no-tskip / nr-intra=0 / nr-inter=0 / no-constrained-intra / no-strong-intra-smoothing / max-merge=5 / limit-refs=0 / limit-modes / me=3 / subme=7 / merange=92 / temporal-mvp / no-frame-dup / no-hme / weightp / weightb / no-analyze-src-pics / deblock=0:0 / sao / no-sao-non-deblock / rd=4 / selective-sao=4 / no-early-skip / rskip / no-fast-intra / no-tskip-fast / no-cu-lossless / b-intra / no-splitrd-skip / rdpenalty=0 / psy-rd=1.50 / psy-rdoq=1.00 / no-rd-refine / no-lossless / cbqpoffs=0 / crqpoffs=0 / rc=crf / crf=17.0 / qcomp=0.60 / qpstep=4 / stats-write=0 / stats-read=0 / ipratio=1.40 / pbratio=1.30 / aq-mode=4 / aq-strength=1.00 / cutree / zone-count=0 / no-strict-cbr / qg-size=32 / no-rc-grain / qpmax=69 / qpmin=0 / no-const-vbv / sar=1 / overscan=0 / videoformat=5 / range=0 / colorprim=2 / transfer=2 / colormatrix=2 / chromaloc=0 / display-window=0 / cll=0,0 / min-luma=0 / max-luma=1023 / log2-max-poc-lsb=8 / vui-timing-info / vui-hrd-info / slices=1 / no-opt-qp-pps / no-opt-ref-list-length-pps / no-multi-pass-opt-rps / scenecut-bias=0.05 / hist-threshold=0.01 / no-opt-cu-delta-qp / no-aq-motion / no-hdr10 / no-hdr10-opt / no-dhdr10-opt / no-idr-recovery-sei / analysis-reuse-level=0 / analysis-save-reuse-level=0 / analysis-load-reuse-level=0 / scale-factor=0 / refine-intra=0 / refine-inter=0 / refine-mv=1 / refine-ctu-distortion=0 / no-limit-sao / ctu-info=0 / no-lowpass-dct / refine-analysis-type=0 / copy-pic=1 / max-ausize-factor=1.0 / no-dynamic-refine / no-single-sei / no-hevc-aq / no-svt / no-field / qp-adaptation-range=1.00 / no-scenecut-aware-qpconformance-window-offsets / right=0 / bottom=0 / decoder-max-rate=0
Default : Yes
Forced : No

Audio
ID : 2
Format : DTS
Format/Info : Digital Theater Systems
Format profile : MA / Core
Mode : 16
Format settings, Endianness : Big
Codec ID : A_DTS
Duration : 52 min 46 s
Bit rate mode : Variable / Constant
Bit rate : 3 682 kb/s / 1 509 kb/s
Channel(s) : 6 channels
Channel positions : Front: L C R, Side: L R, LFE
Sampling rate : 48.0 kHz
Frame rate : 93.750 FPS (512 SPF)
Bit depth : 24 bits
Compression mode : Lossless / Lossy
Stream size : 1.36 GiB (23%)
Title : DTS-HD Master Audio / 5.1 / 48 kHz / 3684 kbps / 24-bit
Language : English
Default : Yes
Forced : No

Text #1
ID : 3
Format : ASS
Codec ID : S_TEXT/ASS
Codec ID/Info : Advanced Sub Station Alpha
Duration : 51 min 21 s
Bit rate : 114 b/s
Count of elements : 813
Compression mode : Lossless
Stream size : 42.9 KiB (0%)
Language : English
Default : Yes
Forced : No

Text #2
ID : 4
Format : VobSub
Muxing mode : zlib
Codec ID : S_VOBSUB
Codec ID/Info : Picture based subtitle format used on DVDs
Duration : 50 min 43 s
Bit rate : 3 686 b/s
Count of elements : 582
Stream size : 1.34 MiB (0%)
Language : German
Default : No
Forced : No

Text #3
ID : 5
Format : VobSub
Muxing mode : zlib
Codec ID : S_VOBSUB
Codec ID/Info : Picture based subtitle format used on DVDs
Duration : 50 min 43 s
Bit rate : 2 813 b/s
Count of elements : 621
Stream size : 1.02 MiB (0%)
Language : Japanese
Default : No
Forced : No

Menu
00:00:00.000 : en:Chapter 1
00:01:24.876 : en:Chapter 2
00:09:51.216 : en:Chapter 3
00:19:15.071 : en:Chapter 4
00:29:46.618 : en:Chapter 5
00:43:15.092 : en:Chapter 6
00:51:33.465 : en:Chapter 7





Marvel's 			  		  		  	 			   		  	   		  		  		 		   	 			   		  	   		   	  			     	 			   			     			   			 Luke Cage S01E06


Marvel's Luke Cage S01E06


Marvel's Luke Cage S01E06


Marvel's Luke Cage S01E06


Marvel's Luke Cage S01E06

All episodes