Index
# A B C D E F G H I J K L M N O P Q R S T U V W Y Z
Tags
Language
Tags

Featured TV Shows


Marvel's M.O.D.O.K. S01E10

Posted By: Tavaz
720p (HD) / WEB-DL IMDb
Marvel's M.O.D.O.K. S01E10

Marvel's M.O.D.O.K. S01E10
WEB-DL | MKV | 1280x720 | English | H264 @ 3431 kbps | E-AC-3 @ 256 kbps | 23 min 47 s | 628 MiB
Subtitles: Français, Deutsch, Suomi, Español, Svenska, Italiano, Nederlands, Dansk, English, Português
Genre: Comedy, Animation


The megalomaniacal supervillain M.O.D.O.K. has long pursued his dream of one day conquering the world. But after years of setbacks and failures fighting the Earth’s mightiest heroes, M.O.D.O.K. has run his evil organization A.I.M. into the ground. Ousted as A.I.M.’s leader, while also dealing with his crumbling marriage and family life, the Mental Organism Designed Only for Killing is set to confront his greatest challenge yet: a midlife crisis!

678d3177b72a4335aabc3052a23fdc1c.mkv (628.2 MB)



General
Unique ID : 83592357981430724855854171072273568483 (0x3EE34D72FD17D6C844CAC732EDC3D2E3)
Complete name : ./678d3177b72a4335aabc3052a23fdc1c.mkv
Format : Matroska
Format version : Version 4 / Version 2
File size : 628 MiB
Duration : 23 min 47 s
Overall bit rate mode : Variable
Overall bit rate : 3 691 kb/s
Encoded date : UTC 2021-07-30 22:36:20
Writing application : mkvmerge v59.0.0 ('Shining Star') 64-bit
Writing library : libebml v1.4.2 + libmatroska v1.6.4

Video
ID : 1
Format : AVC
Format/Info : Advanced Video Codec
Format profile : High@L3.1
Format settings : CABAC / 4 Ref Frames
Format settings, CABAC : Yes
Format settings, RefFrames : 4 frames
Codec ID : V_MPEG4/ISO/AVC
Duration : 23 min 47 s
Bit rate mode : Variable
Bit rate : 3 432 kb/s
Maximum bit rate : 6 375 kb/s
Width : 1 280 pixels
Height : 720 pixels
Display aspect ratio : 16:9
Frame rate mode : Constant
Frame rate : 23.976 (24000/1001) FPS
Color space : YUV
Chroma subsampling : 4:2:0
Bit depth : 8 bits
Scan type : Progressive
Bits/(Pixel*Frame) : 0.155
Stream size : 584 MiB (93%)
Default : Yes
Forced : No
Color range : Limited
Color primaries : BT.709
Transfer characteristics : BT.709
Matrix coefficients : BT.709

Audio
ID : 2
Format : E-AC-3
Format/Info : Enhanced Audio Coding 3
Format settings, Endianness : Big
Codec ID : A_EAC3
Duration : 23 min 47 s
Bit rate mode : Constant
Bit rate : 256 kb/s
Channel(s) : 6 channels
Channel positions : Front: L C R, Side: L R, LFE
Sampling rate : 48.0 kHz
Frame rate : 187.500 FPS (256 SPF)
Compression mode : Lossy
Stream size : 43.6 MiB (7%)
Language : English
Service kind : Complete Main
Default : Yes
Forced : No

Text #1
ID : 3
Format : UTF-8
Codec ID : S_TEXT/UTF8
Codec ID/Info : UTF-8 Plain Text
Duration : 22 min 45 s
Bit rate : 106 b/s
Count of elements : 457
Stream size : 17.7 KiB (0%)
Title : SDH
Language : English
Default : No
Forced : No

Text #2
ID : 4
Format : UTF-8
Codec ID : S_TEXT/UTF8
Codec ID/Info : UTF-8 Plain Text
Duration : 23 min 13 s
Bit rate : 95 b/s
Count of elements : 408
Stream size : 16.3 KiB (0%)
Language : Danish
Default : No
Forced : No

Text #3
ID : 5
Format : UTF-8
Codec ID : S_TEXT/UTF8
Codec ID/Info : UTF-8 Plain Text
Duration : 23 min 20 s
Bit rate : 93 b/s
Count of elements : 394
Stream size : 16.1 KiB (0%)
Language : German
Default : No
Forced : No

Text #4
ID : 6
Format : UTF-8
Codec ID : S_TEXT/UTF8
Codec ID/Info : UTF-8 Plain Text
Duration : 23 min 20 s
Bit rate : 90 b/s
Count of elements : 409
Stream size : 15.4 KiB (0%)
Title : European
Language : Spanish
Default : No
Forced : No

Text #5
ID : 7
Format : UTF-8
Codec ID : S_TEXT/UTF8
Codec ID/Info : UTF-8 Plain Text
Duration : 23 min 20 s
Bit rate : 78 b/s
Count of elements : 402
Stream size : 13.4 KiB (0%)
Language : Finnish
Default : No
Forced : No

Text #6
ID : 8
Format : UTF-8
Codec ID : S_TEXT/UTF8
Codec ID/Info : UTF-8 Plain Text
Duration : 23 min 20 s
Bit rate : 103 b/s
Count of elements : 411
Stream size : 17.7 KiB (0%)
Language : French
Default : No
Forced : No

Text #7
ID : 9
Format : UTF-8
Codec ID : S_TEXT/UTF8
Codec ID/Info : UTF-8 Plain Text
Duration : 23 min 20 s
Bit rate : 91 b/s
Count of elements : 413
Stream size : 15.6 KiB (0%)
Language : Italian
Default : No
Forced : No

Text #8
ID : 10
Format : UTF-8
Codec ID : S_TEXT/UTF8
Codec ID/Info : UTF-8 Plain Text
Duration : 23 min 13 s
Bit rate : 79 b/s
Count of elements : 353
Stream size : 13.5 KiB (0%)
Language : Dutch
Default : No
Forced : No

Text #9
ID : 11
Format : UTF-8
Codec ID : S_TEXT/UTF8
Codec ID/Info : UTF-8 Plain Text
Duration : 23 min 20 s
Bit rate : 88 b/s
Count of elements : 395
Stream size : 15.2 KiB (0%)
Language : Norwegian
Default : No
Forced : No

Text #10
ID : 12
Format : UTF-8
Codec ID : S_TEXT/UTF8
Codec ID/Info : UTF-8 Plain Text
Duration : 23 min 20 s
Bit rate : 96 b/s
Count of elements : 410
Stream size : 16.5 KiB (0%)
Title : European
Language : Portuguese
Default : No
Forced : No

Text #11
ID : 13
Format : UTF-8
Codec ID : S_TEXT/UTF8
Codec ID/Info : UTF-8 Plain Text
Duration : 23 min 13 s
Bit rate : 99 b/s
Count of elements : 412
Stream size : 16.9 KiB (0%)
Language : Swedish
Default : No
Forced : No

Menu
00:02:49.127 : Intro
00:02:54.216 : Content
00:23:09.597 : Credits





Marvel's M.O.D.O.K. S01E10


Marvel's M.O.D.O.K. S01E10


Marvel's M.O.D.O.K. S01E10


Marvel's M.O.D.O.K. S01E10


Marvel's M.O.D.O.K. S01E10

All episodes