Featured TV Shows


WandaVision S01E04

Posted By: Tavaz
WandaVision S01E04

WandaVision S01E04
MKV | 1920x1080 | English | H264 @ 6685 kbps | E-AC-3 @ 768 kbps | 32 min 32 s | 1.69 GiB
Subtitles: Français, Deutsch, Suomi, Español, Svenska, Italiano, Nederlands, Dansk, English, Português
Genre: Drama, Mystery, Comedy


Wanda Maximoff and Vision—two super-powered beings living idealized suburban lives—begin to suspect that everything is not as it seems.

Marvels WandaVision S01 E04 1080P NL Ondertiteld.mkv (1.7 GB)



General
Unique ID : 189862285551855989600303777025856210386 (0x8ED625672A0E17F21A8C0F17269585D2)
Complete name : ./Marvels WandaVision S01 E04 1080P NL Ondertiteld.mkv
Format : Matroska
Format version : Version 4 / Version 2
File size : 1.69 GiB
Duration : 32 min 32 s
Overall bit rate mode : Variable
Overall bit rate : 7 457 kb/s
Movie name : WandaVision.S01E04.1080p.DSNP.WEBRip.DDP5.1.Atmos.x264-NOGRP
Encoded date : UTC 2021-01-29 09:10:51
Writing application : mkvmerge v52.0.0 ('Secret For The Mad') 64-bit
Writing library : libebml v1.4.1 + libmatroska v1.6.2
Cover : Yes
Attachments : small_cover.jpg / small_cover_land.jpg / cover.jpg / cover_land.jpg

Video
ID : 1
Format : AVC
Format/Info : Advanced Video Codec
Format profile : High@L4
Format settings : CABAC / 4 Ref Frames
Format settings, CABAC : Yes
Format settings, RefFrames : 4 frames
Codec ID : V_MPEG4/ISO/AVC
Duration : 32 min 32 s
Bit rate mode : Variable
Bit rate : 6 685 kb/s
Maximum bit rate : 12.7 Mb/s
Width : 1 920 pixels
Height : 1 080 pixels
Display aspect ratio : 16:9
Frame rate mode : Constant
Frame rate : 23.976 (24000/1001) FPS
Color space : YUV
Chroma subsampling : 4:2:0
Bit depth : 8 bits
Scan type : Progressive
Bits/(Pixel*Frame) : 0.134
Stream size : 1.52 GiB (90%)
Language : English
Default : Yes
Forced : No
Color range : Limited
Color primaries : BT.709
Transfer characteristics : BT.709
Matrix coefficients : BT.709

Audio
ID : 2
Format : E-AC-3
Format/Info : Enhanced Audio Coding 3
Format profile : E-AC-3+Atmos / E-AC-3
Format settings, Endianness : Big
Codec ID : A_EAC3
Duration : 32 min 32 s
Bit rate mode : Constant
Bit rate : 768 kb/s
Channel(s) : 15 objects / 6 channels
Channel positions : 15 objects / Front: L C R, Side: L R, LFE
Sampling rate : 48.0 kHz
Frame rate : 187.500 FPS (256 SPF)
Compression mode : Lossy
Stream size : 179 MiB (10%)
Language : English
Service kind : Complete Main
Default : Yes
Forced : No

Text #1
ID : 3
Format : UTF-8
Codec ID : S_TEXT/UTF8
Codec ID/Info : UTF-8 Plain Text
Duration : 27 min 56 s
Bit rate : 74 b/s
Count of elements : 448
Stream size : 15.3 KiB (0%)
Language : English
Default : Yes
Forced : No

Text #2
ID : 4
Format : UTF-8
Codec ID : S_TEXT/UTF8
Codec ID/Info : UTF-8 Plain Text
Duration : 27 min 56 s
Bit rate : 54 b/s
Count of elements : 292
Stream size : 11.1 KiB (0%)
Language : Danish
Default : No
Forced : No

Text #3
ID : 5
Format : UTF-8
Codec ID : S_TEXT/UTF8
Codec ID/Info : UTF-8 Plain Text
Duration : 11 s 136 ms
Bit rate : 42 b/s
Count of elements : 2
Stream size : 59.0 Bytes (0%)
Language : German
Default : No
Forced : Yes

Text #4
ID : 6
Format : UTF-8
Codec ID : S_TEXT/UTF8
Codec ID/Info : UTF-8 Plain Text
Duration : 27 min 56 s
Bit rate : 57 b/s
Count of elements : 365
Stream size : 11.7 KiB (0%)
Language : German
Default : No
Forced : No

Text #5
ID : 7
Format : UTF-8
Codec ID : S_TEXT/UTF8
Codec ID/Info : UTF-8 Plain Text
Duration : 29 min 59 s
Bit rate : 61 b/s
Count of elements : 401
Stream size : 13.5 KiB (0%)
Language : Spanish
Default : No
Forced : No

Text #6
ID : 8
Format : UTF-8
Codec ID : S_TEXT/UTF8
Codec ID/Info : UTF-8 Plain Text
Duration : 29 min 55 s
Bit rate : 61 b/s
Count of elements : 402
Stream size : 13.5 KiB (0%)
Title : Latin
Language : Spanish
Default : No
Forced : No

Text #7
ID : 9
Format : UTF-8
Codec ID : S_TEXT/UTF8
Codec ID/Info : UTF-8 Plain Text
Duration : 28 min 28 s
Bit rate : 54 b/s
Count of elements : 385
Stream size : 11.3 KiB (0%)
Language : French
Default : No
Forced : No

Text #8
ID : 10
Format : UTF-8
Codec ID : S_TEXT/UTF8
Codec ID/Info : UTF-8 Plain Text
Duration : 27 min 49 s
Bit rate : 54 b/s
Count of elements : 380
Stream size : 11.1 KiB (0%)
Title : Canadian
Language : French
Default : No
Forced : No

Text #9
ID : 11
Format : UTF-8
Codec ID : S_TEXT/UTF8
Codec ID/Info : UTF-8 Plain Text
Duration : 29 min 55 s
Bit rate : 55 b/s
Count of elements : 400
Stream size : 12.2 KiB (0%)
Language : Italian
Default : No
Forced : No

Text #10
ID : 12
Format : UTF-8
Codec ID : S_TEXT/UTF8
Codec ID/Info : UTF-8 Plain Text
Duration : 27 min 56 s
Bit rate : 59 b/s
Count of elements : 348
Stream size : 12.1 KiB (0%)
Language : Dutch
Default : No
Forced : No

Text #11
ID : 13
Format : UTF-8
Codec ID : S_TEXT/UTF8
Codec ID/Info : UTF-8 Plain Text
Duration : 29 min 55 s
Bit rate : 53 b/s
Count of elements : 402
Stream size : 11.7 KiB (0%)
Language : Norwegian
Default : No
Forced : No

Text #12
ID : 14
Format : UTF-8
Codec ID : S_TEXT/UTF8
Codec ID/Info : UTF-8 Plain Text
Duration : 27 min 56 s
Bit rate : 64 b/s
Count of elements : 385
Stream size : 13.1 KiB (0%)
Language : Portuguese
Default : No
Forced : No

Text #13
ID : 15
Format : UTF-8
Codec ID : S_TEXT/UTF8
Codec ID/Info : UTF-8 Plain Text
Duration : 29 min 55 s
Bit rate : 61 b/s
Count of elements : 403
Stream size : 13.5 KiB (0%)
Title : Brazil
Language : Portuguese
Default : No
Forced : No

Text #14
ID : 16
Format : UTF-8
Codec ID : S_TEXT/UTF8
Codec ID/Info : UTF-8 Plain Text
Duration : 29 min 55 s
Bit rate : 52 b/s
Count of elements : 400
Stream size : 11.5 KiB (0%)
Language : Finnish
Default : No
Forced : No

Text #15
ID : 17
Format : UTF-8
Codec ID : S_TEXT/UTF8
Codec ID/Info : UTF-8 Plain Text
Duration : 27 min 56 s
Bit rate : 60 b/s
Count of elements : 322
Stream size : 12.4 KiB (0%)
Language : Swedish
Default : No
Forced : No





WandaVision S01E04


WandaVision S01E04


WandaVision S01E04


WandaVision S01E04


WandaVision S01E04

All episodes