Featured TV Shows


Mary Kills People S01E01 Bloody Mary

Posted By: Tavaz
1080p (FullHD) / WEB-DL IMDb
Mary Kills People S01E01 Bloody Mary

Mary Kills People S01E01 Bloody Mary
WEB-DL | MKV | 1920x1080 | English | H264 @ 12873 kbps | E-AC-3 @ 224 kbps | 42 min 24 s | 3.88 GiB
Subtitles: English
Genre: Drama

Single mother Mary Harris is an ER doctor by day, but by night she and her partner, a former plastic surgeon, moonlight as underground angels of death who help terminally ill patients slip away on their own terms

6661fc1fb94948759ed442a68bb6f40d.mkv (3.9 GB)



General
Complete name : ./6661fc1fb94948759ed442a68bb6f40d.mkv
Format : Matroska
Format version : Version 4 / Version 2
File size : 3.88 GiB
Duration : 42 min 24 s
Overall bit rate mode : Variable
Overall bit rate : 13.1 Mb/s
Encoded date : UTC 2017-07-29 18:18:56
Writing application : mkvmerge v13.0.0 ('The Juggler') 64bit
Writing library : libebml v1.3.4 + libmatroska v1.4.5

Video
ID : 1
Format : AVC
Format/Info : Advanced Video Codec
Format profile : High@L4
Format settings : CABAC / 4 Ref Frames
Format settings, CABAC : Yes
Format settings, RefFrames : 4 frames
Codec ID : V_MPEG4/ISO/AVC
Duration : 42 min 24 s
Bit rate mode : Variable
Bit rate : 12.9 Mb/s
Maximum bit rate : 15.0 Mb/s
Width : 1 920 pixels
Height : 1 080 pixels
Display aspect ratio : 16:9
Frame rate mode : Constant
Frame rate : 23.976 (24000/1001) FPS
Color space : YUV
Chroma subsampling : 4:2:0
Bit depth : 8 bits
Scan type : Progressive
Bits/(Pixel*Frame) : 0.259
Stream size : 3.81 GiB (98%)
Default : Yes
Forced : No
Color range : Limited
Color primaries : BT.709
Transfer characteristics : BT.709
Matrix coefficients : BT.709

Audio
ID : 2
Format : E-AC-3
Format/Info : Enhanced Audio Coding 3
Format settings, Endianness : Big
Codec ID : A_EAC3
Duration : 42 min 24 s
Bit rate mode : Constant
Bit rate : 224 kb/s
Channel(s) : 2 channels
Channel positions : Front: L R
Sampling rate : 48.0 kHz
Frame rate : 187.500 FPS (256 SPF)
Compression mode : Lossy
Stream size : 68.0 MiB (2%)
Language : English
Service kind : Complete Main
Default : Yes
Forced : No

Text
ID : 3
Format : UTF-8
Codec ID : S_TEXT/UTF8
Codec ID/Info : UTF-8 Plain Text
Duration : 42 min 11 s
Bit rate : 68 b/s
Count of elements : 794
Stream size : 21.1 KiB (0%)
Language : English
Default : No
Forced : No





Mary Kills People S01E01 Bloody Mary


Mary Kills People S01E01 Bloody Mary


Mary Kills People S01E01 Bloody Mary


Mary Kills People S01E01 Bloody Mary


Mary Kills People S01E01 Bloody Mary

All episodes