Featured TV Shows


MasterChef Australia S12E53

Posted By: Tavaz
720p (HD) / HDTV IMDb
MasterChef Australia S12E53

MasterChef Australia S12E53
HDTV | MKV | 1280x720 | H264 @ 1883 kbps | AC-3 @ 448 kbps | 55 min 13 s | 922 MiB


MasterChef Australia is a Logie Award-winning Australian competitive cooking game show based on the original British MasterChef. It is produced by Shine Australia and screens on Network Ten. Restaurateur and chef Gary Mehigan, chef George Calombaris and food critic Matt Preston serve as the show's main judges. Journalist Sarah Wilson hosted the first series, however her role was dropped at the end of the series.

4f603f83e4a9a1239f5a83ac5afd45eb.mkv (921.7 MB)



General
Unique ID : 168217651890557996956768233820746401399 (0x7E8D8A925007BCE32F2CF2C2D2F7C677)
Complete name : ./4f603f83e4a9a1239f5a83ac5afd45eb.mkv
Format : Matroska
Format version : Version 4 / Version 2
File size : 922 MiB
Duration : 55 min 13 s
Overall bit rate : 2 334 kb/s
Encoded date : UTC 2020-06-30 11:21:30
Writing application : mkvmerge v17.0.0 ('Be Ur Friend') 64-bit
Writing library : libebml v1.3.5 + libmatroska v1.4.8

Video
ID : 1
Format : AVC
Format/Info : Advanced Video Codec
Format profile : High@L4.1
Format settings : CABAC / 5 Ref Frames
Format settings, CABAC : Yes
Format settings, RefFrames : 5 frames
Codec ID : V_MPEG4/ISO/AVC
Duration : 55 min 13 s
Bit rate : 1 884 kb/s
Width : 1 280 pixels
Height : 720 pixels
Display aspect ratio : 16:9
Frame rate mode : Constant
Frame rate : 25.000 FPS
Color space : YUV
Chroma subsampling : 4:2:0
Bit depth : 8 bits
Scan type : Progressive
Bits/(Pixel*Frame) : 0.082
Stream size : 744 MiB (81%)
Writing library : x264 core 159 r2991 1771b55
Encoding settings : cabac=1 / ref=5 / deblock=1:0:0 / analyse=0x3:0x113 / me=hex / subme=8 / psy=1 / psy_rd=1.00:0.00 / mixed_ref=1 / me_range=16 / chroma_me=1 / trellis=2 / 8x8dct=1 / cqm=0 / deadzone=21,11 / fast_pskip=1 / chroma_qp_offset=-2 / threads=12 / lookahead_threads=2 / sliced_threads=0 / nr=0 / decimate=1 / interlaced=0 / bluray_compat=0 / constrained_intra=0 / bframes=3 / b_pyramid=2 / b_adapt=1 / b_bias=0 / direct=3 / weightb=1 / open_gop=0 / weightp=2 / keyint=250 / keyint_min=25 / scenecut=40 / intra_refresh=0 / rc_lookahead=50 / rc=crf / mbtree=1 / crf=21.0 / qcomp=0.60 / qpmin=0 / qpmax=69 / qpstep=4 / ip_ratio=1.40 / aq=1:1.00
Default : Yes
Forced : No
Color range : Limited
Matrix coefficients : BT.709

Audio
ID : 2
Format : AC-3
Format/Info : Audio Coding 3
Format settings, Endianness : Big
Codec ID : A_AC3
Duration : 55 min 13 s
Bit rate mode : Constant
Bit rate : 448 kb/s
Channel(s) : 6 channels
Channel positions : Front: L C R, Side: L R, LFE
Sampling rate : 48.0 kHz
Frame rate : 31.250 FPS (1536 SPF)
Bit depth : 16 bits
Compression mode : Lossy
Stream size : 177 MiB (19%)
Service kind : Complete Main
Default : Yes
Forced : No





MasterChef Australia S12E53


MasterChef Australia S12E53


MasterChef Australia S12E53


MasterChef Australia S12E53


MasterChef Australia S12E53

All episodes