Index
# A B C D E F G H I J K L M N O P Q R S T U V W Y Z
Tags
Language
Tags

Featured TV Shows


Mayans M.C. S01E03

Posted By: Tavaz
Mayans M.C. S01E03

Mayans M.C. S01E03
MKV | 1920x1080 | English | H264 @ 12509 kbps | E-AC-3 @ 640 kbps | 52 min 19 s | 4.81 GiB
Subtitles: Dutch
Genre: Crime, Drama

Set in the aftermath of Jax Teller’s death, Ezekiel "EZ" Reyes is fresh out of prison and a prospect in the Mayans M.C. charter on the Cali/Mexi border. Now, EZ must carve out his new identity in a town where he was once the golden boy with the American Dream in his grasp.

bTN-462.H.1.5PDD.LD-BEW.NZMA.p0801.nawuMohúB.30E10S.C.M.snayaM.mkv (4.8 GB)



General
Unique ID : 137991666684771338099506991318739487407 (0x67D03A7180A2608A1E4B99BCFF988AAF)
Complete name : ./bTN-462.H.1.5PDD.LD-BEW.NZMA.p0801.nawuMohúB.30E10S.C.M.snayaM.mkv
Format : Matroska
Format version : Version 4 / Version 2
File size : 4.81 GiB
Duration : 52 min 19 s
Overall bit rate : 13.2 Mb/s
Encoded date : UTC 2018-10-16 14:20:47
Writing application : mkvmerge v27.0.0 ('Metropolis') 64-bit
Writing library : libebml v1.3.6 + libmatroska v1.4.9

Video
ID : 1
Format : AVC
Format/Info : Advanced Video Codec
Format profile : High@L4
Format settings : CABAC / 4 Ref Frames
Format settings, CABAC : Yes
Format settings, RefFrames : 4 frames
Codec ID : V_MPEG4/ISO/AVC
Duration : 52 min 19 s
Bit rate : 12.5 Mb/s
Width : 1 920 pixels
Height : 1 080 pixels
Display aspect ratio : 16:9
Frame rate mode : Constant
Frame rate : 23.976 (24000/1001) FPS
Color space : YUV
Chroma subsampling : 4:2:0
Bit depth : 8 bits
Scan type : Progressive
Bits/(Pixel*Frame) : 0.252
Stream size : 4.57 GiB (95%)
Default : Yes
Forced : No
Color range : Limited
Color primaries : BT.709
Transfer characteristics : BT.709
Matrix coefficients : BT.709

Audio
ID : 2
Format : E-AC-3
Format/Info : Enhanced Audio Coding 3
Format settings, Endianness : Big
Codec ID : A_EAC3
Duration : 52 min 19 s
Bit rate mode : Constant
Bit rate : 640 kb/s
Channel(s) : 6 channels
Channel positions : Front: L C R, Side: L R, LFE
Sampling rate : 48.0 kHz
Frame rate : 187.500 FPS (256 SPF)
Compression mode : Lossy
Delay relative to video : 25 ms
Stream size : 239 MiB (5%)
Language : English
Service kind : Complete Main
Default : Yes
Forced : No

Text
ID : 3
Format : UTF-8
Codec ID : S_TEXT/UTF8
Codec ID/Info : UTF-8 Plain Text
Duration : 51 min 36 s
Bit rate : 35 b/s
Count of elements : 360
Stream size : 13.4 KiB (0%)
Language : Dutch
Default : Yes
Forced : No





Mayans M.C. S01E03


Mayans M.C. S01E03


Mayans M.C. S01E03


Mayans M.C. S01E03


Mayans M.C. S01E03

All episodes