Index
# A B C D E F G H I J K L M N O P Q R S T U V W Y Z
Tags
Language
Tags

Featured TV Shows


Mayans M.C. S02E02

Posted By: Tavaz
1080p (FullHD) / WEBRip IMDb
Mayans M.C. S02E02

Mayans M.C. S02E02
WEBRip | MKV | 1920x1080 | Français / English | H264 @ 8483 kbps | E-AC-3 @ 256 kbps | 45 min 59 s | 2.89 GiB
Subtitles: Français, English
Genre: Crime, Drama


Set in the aftermath of Jax Teller’s death, Ezekiel "EZ" Reyes is fresh out of prison and a prospect in the Mayans M.C. charter on the Cali/Mexi border. Now, EZ must carve out his new identity in a town where he was once the golden boy with the American Dream in his grasp.

93f6522631d74376aa78593ad9a49f90.mkv (2.9 GB)



General
Unique ID : 232704414061141290365274393328056256133 (0xAF113D6B9A683D30A29ADFCB7F5BC685)
Complete name : ./93f6522631d74376aa78593ad9a49f90.mkv
Format : Matroska
Format version : Version 4 / Version 2
File size : 2.89 GiB
Duration : 45 min 59 s
Overall bit rate mode : Variable
Overall bit rate : 8 998 kb/s
Encoded date : UTC 2021-04-12 15:40:15
Writing application : mkvmerge v56.1.0 ('My Friend') 64-bit
Writing library : libebml v1.4.2 + libmatroska v1.6.4

Video
ID : 1
Format : AVC
Format/Info : Advanced Video Codec
Format profile : High@L4
Format settings : CABAC / 4 Ref Frames
Format settings, CABAC : Yes
Format settings, RefFrames : 4 frames
Codec ID : V_MPEG4/ISO/AVC
Duration : 45 min 59 s
Bit rate mode : Variable
Bit rate : 8 483 kb/s
Maximum bit rate : 12.7 Mb/s
Width : 1 920 pixels
Height : 1 080 pixels
Display aspect ratio : 16:9
Frame rate mode : Constant
Frame rate : 23.976 (24000/1001) FPS
Color space : YUV
Chroma subsampling : 4:2:0
Bit depth : 8 bits
Scan type : Progressive
Bits/(Pixel*Frame) : 0.171
Stream size : 2.73 GiB (94%)
Default : Yes
Forced : No
Color range : Limited
Color primaries : BT.709
Transfer characteristics : BT.709
Matrix coefficients : BT.709

Audio #1
ID : 2
Format : E-AC-3
Format/Info : Enhanced Audio Coding 3
Format settings, Endianness : Big
Codec ID : A_EAC3
Duration : 45 min 59 s
Bit rate mode : Constant
Bit rate : 256 kb/s
Channel(s) : 6 channels
Channel positions : Front: L C R, Side: L R, LFE
Sampling rate : 48.0 kHz
Frame rate : 187.500 FPS (256 SPF)
Compression mode : Lossy
Stream size : 84.2 MiB (3%)
Title : French
Language : French
Service kind : Complete Main
Default : Yes
Forced : No

Audio #2
ID : 3
Format : E-AC-3
Format/Info : Enhanced Audio Coding 3
Format settings, Endianness : Big
Codec ID : A_EAC3
Duration : 45 min 59 s
Bit rate mode : Constant
Bit rate : 256 kb/s
Channel(s) : 6 channels
Channel positions : Front: L C R, Side: L R, LFE
Sampling rate : 48.0 kHz
Frame rate : 187.500 FPS (256 SPF)
Compression mode : Lossy
Stream size : 84.2 MiB (3%)
Title : English
Language : English
Service kind : Complete Main
Default : No
Forced : No

Text #1
ID : 4
Format : UTF-8
Codec ID : S_TEXT/UTF8
Codec ID/Info : UTF-8 Plain Text
Duration : 45 min 47 s
Bit rate : 47 b/s
Count of elements : 520
Stream size : 16.1 KiB (0%)
Title : French
Language : French
Default : No
Forced : No

Text #2
ID : 5
Format : UTF-8
Codec ID : S_TEXT/UTF8
Codec ID/Info : UTF-8 Plain Text
Duration : 45 min 51 s
Bit rate : 53 b/s
Count of elements : 734
Stream size : 17.9 KiB (0%)
Title : English (SDH)
Language : English
Default : No
Forced : No





Mayans M.C. S02E02


Mayans M.C. S02E02


Mayans M.C. S02E02


Mayans M.C. S02E02


Mayans M.C. S02E02

All episodes