Index
# A B C D E F G H I J K L M N O P Q R S T U V W Y Z
Tags
Language
Tags

Featured TV Shows


Mayans M.C. S03E06

Posted By: Tavaz
1080p (FullHD) / WEBRip IMDb
Mayans M.C. S03E06

Mayans M.C. S03E06
WEBRip | MKV | 1920x1080 | Français / English | H264 @ 4499 kbps | AAC @ 128 kbps | 53 min 24 s | 1.75 GiB
Subtitles: Français
Genre: Crime, Drama


Set in the aftermath of Jax Teller’s death, Ezekiel "EZ" Reyes is fresh out of prison and a prospect in the Mayans M.C. charter on the Cali/Mexi border. Now, EZ must carve out his new identity in a town where he was once the golden boy with the American Dream in his grasp.

78d08120b96946de943fc39e867e5687.mkv (1.8 GB)



General
Unique ID : 224822728385687595388979030347959161423 (0xA9234850751C07268DFCE1A62ADED24F)
Complete name : ./78d08120b96946de943fc39e867e5687.mkv
Format : Matroska
Format version : Version 4 / Version 2
File size : 1.75 GiB
Duration : 53 min 24 s
Overall bit rate : 4 696 kb/s
Encoded date : UTC 2021-06-23 20:59:21
Writing application : mkvmerge v58.0.0 ('Supper's Ready') 64-bit
Writing library : libebml v1.4.2 + libmatroska v1.6.4

Video
ID : 1
Format : AVC
Format/Info : Advanced Video Codec
Format profile : High@L4.1
Format settings : CABAC / 2 Ref Frames
Format settings, CABAC : Yes
Format settings, RefFrames : 2 frames
Format settings, GOP : M=1, N=50
Codec ID : V_MPEG4/ISO/AVC
Duration : 53 min 24 s
Bit rate mode : Constant
Bit rate : 4 500 kb/s
Width : 1 920 pixels
Height : 1 080 pixels
Display aspect ratio : 16:9
Frame rate mode : Constant
Frame rate : 25.000 FPS
Color space : YUV
Chroma subsampling : 4:2:0
Bit depth : 8 bits
Scan type : Progressive
Bits/(Pixel*Frame) : 0.087
Stream size : 1.66 GiB (94%)
Default : Yes
Forced : No
Color range : Limited
Color primaries : BT.709
Transfer characteristics : BT.709
Matrix coefficients : BT.709

Audio #1
ID : 2
Format : AAC
Format/Info : Advanced Audio Codec
Format profile : LC
Codec ID : A_AAC-2
Duration : 53 min 24 s
Bit rate : 128 kb/s
Channel(s) : 2 channels
Channel positions : Front: L R
Sampling rate : 48.0 kHz
Frame rate : 46.875 FPS (1024 SPF)
Compression mode : Lossy
Stream size : 48.9 MiB (3%)
Title : French
Language : French
Default : Yes
Forced : No

Audio #2
ID : 3
Format : AAC
Format/Info : Advanced Audio Codec
Format profile : LC
Codec ID : A_AAC-2
Duration : 53 min 24 s
Bit rate : 128 kb/s
Channel(s) : 2 channels
Channel positions : Front: L R
Sampling rate : 48.0 kHz
Frame rate : 46.875 FPS (1024 SPF)
Compression mode : Lossy
Stream size : 48.9 MiB (3%)
Title : English
Language : English
Default : No
Forced : No

Text
ID : 4
Format : UTF-8
Codec ID : S_TEXT/UTF8
Codec ID/Info : UTF-8 Plain Text
Duration : 52 min 35 s
Bit rate : 28 b/s
Count of elements : 406
Stream size : 11.1 KiB (0%)
Title : French
Language : French
Default : No
Forced : No





Mayans M.C. S03E06


Mayans M.C. S03E06


Mayans M.C. S03E06


Mayans M.C. S03E06


Mayans M.C. S03E06

All episodes