Index
# A B C D E F G H I J K L M N O P Q R S T U V W Y Z
Tags
Language
Tags

Featured TV Shows


Mayans M.C. S03E07

Posted By: Tavaz
1080p (FullHD) / WEBRip IMDb
Mayans M.C. S03E07

Mayans M.C. S03E07
WEBRip | MKV | 1920x1080 | Français / English | H264 @ 4499 kbps | AAC @ 128 kbps | 45 min 48 s | 1.50 GiB
Subtitles: Français
Genre: Crime, Drama


Set in the aftermath of Jax Teller’s death, Ezekiel "EZ" Reyes is fresh out of prison and a prospect in the Mayans M.C. charter on the Cali/Mexi border. Now, EZ must carve out his new identity in a town where he was once the golden boy with the American Dream in his grasp.

d7ccfde6eea745358f20db4f8a3d222a.mkv (1.5 GB)



General
Unique ID : 291202110407112881028140541554049705291 (0xDB137C86B03A0732BE51B7ECB8E0654B)
Complete name : ./d7ccfde6eea745358f20db4f8a3d222a.mkv
Format : Matroska
Format version : Version 4 / Version 2
File size : 1.50 GiB
Duration : 45 min 48 s
Overall bit rate : 4 680 kb/s
Encoded date : UTC 2021-06-23 20:59:33
Writing application : mkvmerge v58.0.0 ('Supper's Ready') 64-bit
Writing library : libebml v1.4.2 + libmatroska v1.6.4

Video
ID : 1
Format : AVC
Format/Info : Advanced Video Codec
Format profile : High@L4.1
Format settings : CABAC / 2 Ref Frames
Format settings, CABAC : Yes
Format settings, RefFrames : 2 frames
Format settings, GOP : M=1, N=50
Codec ID : V_MPEG4/ISO/AVC
Duration : 45 min 48 s
Bit rate mode : Constant
Bit rate : 4 500 kb/s
Width : 1 920 pixels
Height : 1 080 pixels
Display aspect ratio : 16:9
Frame rate mode : Constant
Frame rate : 25.000 FPS
Color space : YUV
Chroma subsampling : 4:2:0
Bit depth : 8 bits
Scan type : Progressive
Bits/(Pixel*Frame) : 0.087
Stream size : 1.41 GiB (94%)
Default : Yes
Forced : No
Color range : Limited
Color primaries : BT.709
Transfer characteristics : BT.709
Matrix coefficients : BT.709

Audio #1
ID : 2
Format : AAC
Format/Info : Advanced Audio Codec
Format profile : LC
Codec ID : A_AAC-2
Duration : 45 min 48 s
Bit rate : 128 kb/s
Channel(s) : 2 channels
Channel positions : Front: L R
Sampling rate : 48.0 kHz
Frame rate : 46.875 FPS (1024 SPF)
Compression mode : Lossy
Stream size : 41.9 MiB (3%)
Title : French
Language : French
Default : Yes
Forced : No

Audio #2
ID : 3
Format : AAC
Format/Info : Advanced Audio Codec
Format profile : LC
Codec ID : A_AAC-2
Duration : 45 min 48 s
Bit rate : 128 kb/s
Channel(s) : 2 channels
Channel positions : Front: L R
Sampling rate : 48.0 kHz
Frame rate : 46.875 FPS (1024 SPF)
Compression mode : Lossy
Stream size : 41.9 MiB (3%)
Title : English
Language : English
Default : No
Forced : No

Text #1
ID : 4
Format : UTF-8
Codec ID : S_TEXT/UTF8
Codec ID/Info : UTF-8 Plain Text
Duration : 44 min 56 s
Bit rate : 40 b/s
Count of elements : 494
Stream size : 13.2 KiB (0%)
Title : French
Language : French
Default : No
Forced : No

Text #2
ID : 5
Format : UTF-8
Codec ID : S_TEXT/UTF8
Codec ID/Info : UTF-8 Plain Text
Duration : 45 min 9 s
Bit rate : 43 b/s
Count of elements : 628
Stream size : 14.5 KiB (0%)
Title : French (SDH)
Language : French
Default : No
Forced : No





Mayans M.C. S03E07


Mayans M.C. S03E07


Mayans M.C. S03E07


Mayans M.C. S03E07


Mayans M.C. S03E07

All episodes