Index
# A B C D E F G H I J K L M N O P Q R S T U V W Y Z
Tags
Language
Tags

Featured TV Shows


Mayans M.C. S03E10

Posted By:
1080p (FullHD) / HDTV IMDb
Mayans M.C. S03E10

Mayans M.C. S03E10
HDTV | MKV | 1920x962 | English | H264 @ 5838 kbps | AC-3 @ 384 kbps | 1 h 17 min | 3.35 GiB
Subtitles: English
Genre: Crime, Drama


Set in the aftermath of Jax Teller’s death, Ezekiel "EZ" Reyes is fresh out of prison and a prospect in the Mayans M.C. charter on the Cali/Mexi border. Now, EZ must carve out his new identity in a town where he was once the golden boy with the American Dream in his grasp.

c185e91d426b4b32b03021cf4ad1d101.mkv (3.4 GB)



General
Unique ID : 245662840416500282580391662408225990070 (0xB8D0F12AB8D56359447CC3C688FF25B6)
Complete name : ./c185e91d426b4b32b03021cf4ad1d101.mkv
Format : Matroska
Format version : Version 4 / Version 2
File size : 3.35 GiB
Duration : 1 h 17 min
Overall bit rate : 6 224 kb/s
Encoded date : UTC 2021-05-12 04:31:51
Writing application : mkvmerge v30.1.0 ('Forever And More') 64-bit
Writing library : libebml v1.3.6 + libmatroska v1.4.9

Video
ID : 1
Format : AVC
Format/Info : Advanced Video Codec
Format profile : High@L4.1
Format settings : CABAC / 4 Ref Frames
Format settings, CABAC : Yes
Format settings, RefFrames : 4 frames
Codec ID : V_MPEG4/ISO/AVC
Duration : 1 h 17 min
Bit rate : 5 838 kb/s
Width : 1 920 pixels
Height : 962 pixels
Display aspect ratio : 1.996
Frame rate mode : Constant
Frame rate : 23.976 (24000/1001) FPS
Color space : YUV
Chroma subsampling : 4:2:0
Bit depth : 8 bits
Scan type : Progressive
Bits/(Pixel*Frame) : 0.132
Stream size : 3.15 GiB (94%)
Writing library : x264 core 163 r3059 b684ebe
Encoding settings : cabac=1 / ref=4 / deblock=1:0:0 / analyse=0x3:0x113 / me=umh / subme=8 / psy=1 / psy_rd=1.00:0.15 / mixed_ref=1 / me_range=16 / chroma_me=1 / trellis=2 / 8x8dct=1 / cqm=0 / deadzone=21,11 / fast_pskip=1 / chroma_qp_offset=-3 / threads=30 / lookahead_threads=5 / sliced_threads=0 / nr=0 / decimate=1 / interlaced=0 / bluray_compat=0 / constrained_intra=0 / bframes=3 / b_pyramid=2 / b_adapt=2 / b_bias=0 / direct=3 / weightb=1 / open_gop=0 / weightp=2 / keyint=240 / keyint_min=23 / scenecut=40 / intra_refresh=0 / rc_lookahead=50 / rc=crf / mbtree=1 / crf=18.0 / qcomp=0.60 / qpmin=0 / qpmax=69 / qpstep=4 / vbv_maxrate=62500 / vbv_bufsize=78125 / crf_max=0.0 / nal_hrd=none / filler=0 / ip_ratio=1.40 / aq=1:1.00
Language : English
Default : Yes
Forced : No
Color range : Limited
Matrix coefficients : BT.709

Audio
ID : 2
Format : AC-3
Format/Info : Audio Coding 3
Format settings, Endianness : Big
Codec ID : A_AC3
Duration : 1 h 17 min
Bit rate mode : Constant
Bit rate : 384 kb/s
Channel(s) : 6 channels
Channel positions : Front: L C R, Side: L R, LFE
Sampling rate : 48.0 kHz
Frame rate : 31.250 FPS (1536 SPF)
Bit depth : 16 bits
Compression mode : Lossy
Delay relative to video : 9 ms
Stream size : 212 MiB (6%)
Language : English
Service kind : Complete Main
Default : Yes
Forced : No

Text
ID : 3
Format : UTF-8
Codec ID : S_TEXT/UTF8
Codec ID/Info : UTF-8 Plain Text
Duration : 1 h 17 min
Bit rate : 63 b/s
Count of elements : 980
Stream size : 35.8 KiB (0%)
Language : English
Default : No
Forced : No





Mayans M.C. S03E10


Mayans M.C. S03E10


Mayans M.C. S03E10


Mayans M.C. S03E10


Mayans M.C. S03E10

All episodes