Featured TV Shows


McMillion$ S01E01

Posted By: Tavaz
720p (HD) / WEBRip IMDb
McMillion$ S01E01

McMillion$ S01E01
WEBRip | MKV | 1280x720 | English | H264 @ 2155 kbps | E-AC-3 @ 256 kbps | 55 min 55 s | 965 MiB
Subtitles: English
Genre: Documentary


A detailed account of the McDonald's Monopoly game scam during the 1990s as told by the participants in the case, including the prizewinners and the FBI agents who caught the security officer who orchestrated the entire scheme.

2ebe98a1a41e44b58f195a173f272a22.mkv (965.4 MB)



General
Unique ID : 51192063058597459878548488602172746903 (0x26833B9345C7DDC7BF4645B34EB36C97)
Complete name : ./2ebe98a1a41e44b58f195a173f272a22.mkv
Format : Matroska
Format version : Version 4 / Version 2
File size : 965 MiB
Duration : 55 min 55 s
Overall bit rate : 2 413 kb/s
Encoded date : UTC 2020-02-04 03:09:32
Writing application : mkvmerge v41.0.0 ('Smarra') 64-bit
Writing library : libebml v1.3.9 + libmatroska v1.5.2

Video
ID : 1
Format : AVC
Format/Info : Advanced Video Codec
Format profile : High@L3.1
Format settings : CABAC / 5 Ref Frames
Format settings, CABAC : Yes
Format settings, RefFrames : 5 frames
Codec ID : V_MPEG4/ISO/AVC
Duration : 55 min 55 s
Bit rate : 2 156 kb/s
Width : 1 280 pixels
Height : 720 pixels
Display aspect ratio : 16:9
Frame rate mode : Constant
Frame rate : 23.976 (24000/1001) FPS
Color space : YUV
Chroma subsampling : 4:2:0
Bit depth : 8 bits
Scan type : Progressive
Bits/(Pixel*Frame) : 0.098
Stream size : 862 MiB (89%)
Default : Yes
Forced : No

Audio
ID : 2
Format : E-AC-3
Format/Info : Enhanced Audio Coding 3
Format settings, Endianness : Big
Codec ID : A_EAC3
Duration : 55 min 55 s
Bit rate mode : Constant
Bit rate : 256 kb/s
Channel(s) : 6 channels
Channel positions : Front: L C R, Side: L R, LFE
Sampling rate : 48.0 kHz
Frame rate : 187.500 FPS (256 SPF)
Compression mode : Lossy
Delay relative to video : 11 ms
Stream size : 102 MiB (11%)
Service kind : Complete Main
Default : Yes
Forced : No

Text
ID : 3
Format : UTF-8
Codec ID : S_TEXT/UTF8
Codec ID/Info : UTF-8 Plain Text
Duration : 55 min 32 s
Bit rate : 125 b/s
Count of elements : 1256
Stream size : 50.8 KiB (0%)
Language : English
Default : No
Forced : No





McMillion$ S01E01


McMillion$ S01E01


McMillion$ S01E01


McMillion$ S01E01


McMillion$ S01E01

All episodes