Featured TV Shows


McMillion$ S01E01

Posted By: Tavaz
1080p (FullHD) / WEBRip IMDb
McMillion$ S01E01

McMillion$ S01E01
WEBRip | MKV | 1920x1080 | English | H264 @ 4962 kbps | E-AC-3 @ 256 kbps | 55 min 55 s | 2.04 GiB
Subtitles: English
Genre: Documentary


A detailed account of the McDonald's Monopoly game scam during the 1990s as told by the participants in the case, including the prizewinners and the FBI agents who caught the security officer who orchestrated the entire scheme.

d2b96d1936f14b0a8abd568148df0d53.mkv (2.0 GB)



General
Unique ID : 292564790709957083883077684697580858174 (0xDC19EDDA29FEA41ED928F0CE94966B3E)
Complete name : ./d2b96d1936f14b0a8abd568148df0d53.mkv
Format : Matroska
Format version : Version 4 / Version 2
File size : 2.04 GiB
Duration : 55 min 55 s
Overall bit rate : 5 221 kb/s
Encoded date : UTC 2020-02-04 03:10:16
Writing application : mkvmerge v41.0.0 ('Smarra') 64-bit
Writing library : libebml v1.3.9 + libmatroska v1.5.2

Video
ID : 1
Format : AVC
Format/Info : Advanced Video Codec
Format profile : High@L4
Format settings : CABAC / 4 Ref Frames
Format settings, CABAC : Yes
Format settings, RefFrames : 4 frames
Codec ID : V_MPEG4/ISO/AVC
Duration : 55 min 55 s
Bit rate : 4 963 kb/s
Width : 1 920 pixels
Height : 1 080 pixels
Display aspect ratio : 16:9
Frame rate mode : Constant
Frame rate : 23.976 (24000/1001) FPS
Color space : YUV
Chroma subsampling : 4:2:0
Bit depth : 8 bits
Scan type : Progressive
Bits/(Pixel*Frame) : 0.100
Stream size : 1.94 GiB (95%)
Default : Yes
Forced : No

Audio
ID : 2
Format : E-AC-3
Format/Info : Enhanced Audio Coding 3
Format settings, Endianness : Big
Codec ID : A_EAC3
Duration : 55 min 55 s
Bit rate mode : Constant
Bit rate : 256 kb/s
Channel(s) : 6 channels
Channel positions : Front: L C R, Side: L R, LFE
Sampling rate : 48.0 kHz
Frame rate : 187.500 FPS (256 SPF)
Compression mode : Lossy
Delay relative to video : 11 ms
Stream size : 102 MiB (5%)
Service kind : Complete Main
Default : Yes
Forced : No

Text
ID : 3
Format : UTF-8
Codec ID : S_TEXT/UTF8
Codec ID/Info : UTF-8 Plain Text
Duration : 55 min 32 s
Bit rate : 125 b/s
Count of elements : 1256
Stream size : 50.8 KiB (0%)
Language : English
Default : No
Forced : No





McMillion$ S01E01


McMillion$ S01E01


McMillion$ S01E01


McMillion$ S01E01


McMillion$ S01E01

All episodes