Featured TV Shows


McMillion$ S01E02

Posted By: Tavaz
1080p (FullHD) / WEB-DL IMDb
McMillion$ S01E02

McMillion$ S01E02
WEB-DL | MKV | 1920x1080 | English | H264 @ 8457 kbps | E-AC-3 @ 640 kbps | 54 min 10 s | 3.44 GiB
Subtitles: English
Genre: Documentary


A detailed account of the McDonald's Monopoly game scam during the 1990s as told by the participants in the case, including the prizewinners and the FBI agents who caught the security officer who orchestrated the entire scheme.

32ef712515fc4178bcf818de6dc7bee9.mkv (3.4 GB)



General
Unique ID : 84053920455379996660457113079119372587 (0x3F3C323C71E4B04312237723D668612B)
Complete name : ./32ef712515fc4178bcf818de6dc7bee9.mkv
Format : Matroska
Format version : Version 4 / Version 2
File size : 3.44 GiB
Duration : 54 min 10 s
Overall bit rate : 9 099 kb/s
Encoded date : UTC 2020-02-11 03:11:49
Writing application : mkvmerge v41.0.0 ('Smarra') 64-bit
Writing library : libebml v1.3.9 + libmatroska v1.5.2

Video
ID : 1
Format : AVC
Format/Info : Advanced Video Codec
Format profile : High@L4
Format settings : CABAC / 4 Ref Frames
Format settings, CABAC : Yes
Format settings, RefFrames : 4 frames
Codec ID : V_MPEG4/ISO/AVC
Duration : 54 min 10 s
Bit rate mode : Constant
Bit rate : 8 457 kb/s
Nominal bit rate : 10 000 kb/s
Width : 1 920 pixels
Height : 1 080 pixels
Display aspect ratio : 16:9
Frame rate mode : Constant
Frame rate : 23.976 (24000/1001) FPS
Color space : YUV
Chroma subsampling : 4:2:0
Bit depth : 8 bits
Scan type : Progressive
Bits/(Pixel*Frame) : 0.170
Stream size : 3.20 GiB (93%)
Default : Yes
Forced : No
Color range : Limited
Color primaries : BT.709
Transfer characteristics : BT.709
Matrix coefficients : BT.709

Audio
ID : 2
Format : E-AC-3
Format/Info : Enhanced Audio Coding 3
Format settings, Endianness : Big
Codec ID : A_EAC3
Duration : 54 min 10 s
Bit rate mode : Constant
Bit rate : 640 kb/s
Channel(s) : 6 channels
Channel positions : Front: L C R, Side: L R, LFE
Sampling rate : 48.0 kHz
Frame rate : 187.500 FPS (256 SPF)
Compression mode : Lossy
Delay relative to video : 28 ms
Stream size : 248 MiB (7%)
Language : English
Service kind : Complete Main
Default : Yes
Forced : No

Text
ID : 3
Format : UTF-8
Codec ID : S_TEXT/UTF8
Codec ID/Info : UTF-8 Plain Text
Duration : 53 min 50 s
Bit rate : 95 b/s
Count of elements : 1193
Stream size : 37.5 KiB (0%)
Title : SDH
Language : English
Default : No
Forced : No





McMillion$ S01E02


McMillion$ S01E02


McMillion$ S01E02


McMillion$ S01E02


McMillion$ S01E02

All episodes