Featured TV Shows


Milo Murphy’s Law S02E09

Posted By: Tavaz
1080p (FullHD) / WEB-DL IMDb
Milo Murphy’s Law S02E09

Milo Murphy’s Law S02E09
WEB-DL | MKV | 1920x1080 | English | H264 @ 5216 kbps | AAC @ 124 kbps | 10 min 50 s | 415 MiB
Subtitles: English
Genre: Animazione, Commedia, Famiglia

Milo Murphy is the personification of Murphy’s Law where anything that can go wrong will go wrong. Suffering from Extreme Hereditary Murphy’s Law condition (EHML), Milo always looks to make the best of the cards he’s been dealt and his endless optimism and enthusiasm can turn any catastrophe into a wild adventure. Together, he and his friends will learn that it’s all about a positive attitude and not to sweat the big stuff… and it’s all big stuff.

bba6e170764d4b5eb5dba497f892e8eb.mkv (414.6 MB)



General
Unique ID : 243718235698586105536272519022604290797 (0xB75A6CC0834BA1AB9449733213DD8AED)
Complete name : ./bba6e170764d4b5eb5dba497f892e8eb.mkv
Format : Matroska
Format version : Version 4 / Version 2
File size : 415 MiB
Duration : 10 min 50 s
Overall bit rate : 5 344 kb/s
Encoded date : UTC 2019-02-03 17:51:56
Writing application : mkvmerge v30.1.0 ('Forever And More') 64-bit
Writing library : libebml v1.3.6 + libmatroska v1.4.9

Video
ID : 1
Format : AVC
Format/Info : Advanced Video Codec
Format profile : High@L4
Format settings : CABAC / 4 Ref Frames
Format settings, CABAC : Yes
Format settings, RefFrames : 4 frames
Codec ID : V_MPEG4/ISO/AVC
Duration : 10 min 50 s
Bit rate : 5 216 kb/s
Width : 1 920 pixels
Height : 1 080 pixels
Display aspect ratio : 16:9
Frame rate mode : Constant
Frame rate : 23.976 (23976/1000) FPS
Color space : YUV
Chroma subsampling : 4:2:0
Bit depth : 8 bits
Scan type : Progressive
Bits/(Pixel*Frame) : 0.105
Stream size : 405 MiB (98%)
Language : English
Default : No
Forced : No
Color range : Limited
Color primaries : BT.709
Transfer characteristics : BT.709
Matrix coefficients : BT.709

Audio
ID : 2
Format : AAC
Format/Info : Advanced Audio Codec
Format profile : LC
Codec ID : A_AAC-2
Duration : 10 min 50 s
Bit rate : 125 kb/s
Channel(s) : 2 channels
Channel positions : Front: L R
Sampling rate : 48.0 kHz
Frame rate : 46.875 FPS (1024 SPF)
Compression mode : Lossy
Stream size : 9.69 MiB (2%)
Language : English
Default : Yes
Forced : No

Text
ID : 3
Format : UTF-8
Codec ID : S_TEXT/UTF8
Codec ID/Info : UTF-8 Plain Text
Duration : 10 min 46 s
Bit rate : 109 b/s
Count of elements : 249
Stream size : 8.64 KiB (0%)
Language : English
Default : Yes
Forced : No





Milo Murphy’s Law S02E09


Milo Murphy’s Law S02E09


Milo Murphy’s Law S02E09


Milo Murphy’s Law S02E09


Milo Murphy’s Law S02E09

All episodes