Featured TV Shows


Milo Murphy’s Law S02E19

Posted By: Tavaz
1080p (FullHD) / WEB-DL IMDb
Milo Murphy’s Law S02E19

Milo Murphy’s Law S02E19
WEB-DL | MKV | 1920x1080 | English | H264 @ 5096 kbps | AAC @ 124 kbps | 10 min 52 s | 406 MiB
Subtitles: English
Genre: Animazione, Commedia, Famiglia

Milo Murphy is the personification of Murphy’s Law where anything that can go wrong will go wrong. Suffering from Extreme Hereditary Murphy’s Law condition (EHML), Milo always looks to make the best of the cards he’s been dealt and his endless optimism and enthusiasm can turn any catastrophe into a wild adventure. Together, he and his friends will learn that it’s all about a positive attitude and not to sweat the big stuff… and it’s all big stuff.

4e321bbb20714226be5b6e859603894e.mkv (406.1 MB)



General
Unique ID : 113860672221764981528154308469962555705 (0x55A8C48F53B30F59747DCCD47F53C139)
Complete name : ./4e321bbb20714226be5b6e859603894e.mkv
Format : Matroska
Format version : Version 4 / Version 2
File size : 406 MiB
Duration : 10 min 52 s
Overall bit rate : 5 223 kb/s
Encoded date : UTC 2019-03-11 17:53:50
Writing application : mkvmerge v31.0.0 ('Dolores In A Shoestand') 64-bit
Writing library : libebml v1.3.6 + libmatroska v1.4.9

Video
ID : 1
Format : AVC
Format/Info : Advanced Video Codec
Format profile : High@L4
Format settings : CABAC / 4 Ref Frames
Format settings, CABAC : Yes
Format settings, RefFrames : 4 frames
Codec ID : V_MPEG4/ISO/AVC
Duration : 10 min 52 s
Bit rate : 5 096 kb/s
Width : 1 920 pixels
Height : 1 080 pixels
Display aspect ratio : 16:9
Frame rate mode : Constant
Frame rate : 23.976 (24000/1001) FPS
Color space : YUV
Chroma subsampling : 4:2:0
Bit depth : 8 bits
Scan type : Progressive
Bits/(Pixel*Frame) : 0.103
Stream size : 396 MiB (98%)
Language : English
Default : Yes
Forced : No
Color range : Limited
Color primaries : BT.709
Transfer characteristics : BT.709
Matrix coefficients : BT.709

Audio
ID : 2
Format : AAC
Format/Info : Advanced Audio Codec
Format profile : LC
Codec ID : A_AAC-2
Duration : 10 min 52 s
Bit rate : 124 kb/s
Channel(s) : 2 channels
Channel positions : Front: L R
Sampling rate : 48.0 kHz
Frame rate : 46.875 FPS (1024 SPF)
Compression mode : Lossy
Stream size : 9.66 MiB (2%)
Language : English
Default : Yes
Forced : No

Text
ID : 3
Format : UTF-8
Codec ID : S_TEXT/UTF8
Codec ID/Info : UTF-8 Plain Text
Duration : 10 min 45 s
Bit rate : 109 b/s
Count of elements : 234
Stream size : 8.63 KiB (0%)
Language : English
Default : Yes
Forced : No





Milo Murphy’s Law S02E19


Milo Murphy’s Law S02E19


Milo Murphy’s Law S02E19


Milo Murphy’s Law S02E19


Milo Murphy’s Law S02E19

All episodes