Featured TV Shows


Milo Murphy’s Law S02E27

Posted By: Tavaz
1080p (FullHD) / WEB-DL IMDb
Milo Murphy’s Law S02E27

Milo Murphy’s Law S02E27
WEB-DL | MKV | 1920x1080 | English | H264 @ 5155 kbps | AAC @ 125 kbps | 22 min 1 s | 832 MiB
Subtitles: English
Genre: Animazione, Commedia, Famiglia


Milo Murphy is the personification of Murphy’s Law where anything that can go wrong will go wrong. Suffering from Extreme Hereditary Murphy’s Law condition (EHML), Milo always looks to make the best of the cards he’s been dealt and his endless optimism and enthusiasm can turn any catastrophe into a wild adventure. Together, he and his friends will learn that it’s all about a positive attitude and not to sweat the big stuff… and it’s all big stuff.

d94f4a624bd8448eb809cc52a7666034.mkv (832.4 MB)



General
Unique ID : 48107142362255135595346283184302196589 (0x2431193DF199E8EBBF1FD49012D2076D)
Complete name : ./d94f4a624bd8448eb809cc52a7666034.mkv
Format : Matroska
Format version : Version 4 / Version 2
File size : 832 MiB
Duration : 22 min 1 s
Overall bit rate : 5 283 kb/s
Encoded date : UTC 2019-05-20 17:39:20
Writing application : mkvmerge v34.0.0 ('Sight and Seen') 64-bit
Writing library : libebml v1.3.7 + libmatroska v1.5.0

Video
ID : 1
Format : AVC
Format/Info : Advanced Video Codec
Format profile : High@L4
Format settings : CABAC / 4 Ref Frames
Format settings, CABAC : Yes
Format settings, RefFrames : 4 frames
Codec ID : V_MPEG4/ISO/AVC
Duration : 22 min 1 s
Bit rate : 5 155 kb/s
Width : 1 920 pixels
Height : 1 080 pixels
Display aspect ratio : 16:9
Frame rate mode : Constant
Frame rate : 23.976 (24000/1001) FPS
Color space : YUV
Chroma subsampling : 4:2:0
Bit depth : 8 bits
Scan type : Progressive
Bits/(Pixel*Frame) : 0.104
Stream size : 812 MiB (98%)
Language : English
Default : Yes
Forced : No
Color range : Limited
Color primaries : BT.709
Transfer characteristics : BT.709
Matrix coefficients : BT.709

Audio
ID : 2
Format : AAC
Format/Info : Advanced Audio Codec
Format profile : LC
Codec ID : A_AAC-2
Duration : 22 min 1 s
Bit rate : 126 kb/s
Channel(s) : 2 channels
Channel positions : Front: L R
Sampling rate : 48.0 kHz
Frame rate : 46.875 FPS (1024 SPF)
Compression mode : Lossy
Delay relative to video : -42 ms
Stream size : 19.8 MiB (2%)
Language : English
Default : Yes
Forced : No

Text
ID : 3
Format : UTF-8
Codec ID : S_TEXT/UTF8
Codec ID/Info : UTF-8 Plain Text
Duration : 21 min 58 s
Bit rate : 156 b/s
Count of elements : 556
Stream size : 25.2 KiB (0%)
Language : English
Default : No
Forced : No





Milo Murphy’s Law S02E27


Milo Murphy’s Law S02E27


Milo Murphy’s Law S02E27


Milo Murphy’s Law S02E27


Milo Murphy’s Law S02E27

All episodes