Index
# A B C D E F G H I J K L M N O P Q R S T U V W Y Z
Tags
Language
Tags

Featured TV Shows


Miracle Workers S01E02

Posted By:
1080p (FullHD) / HDTV IMDb
Miracle Workers S01E02

Miracle Workers S01E02
HDTV | MKV | 1920x1080 | French / English | H264 @ 5604 kbps | AC-3 @ 192 kbps | 19 min 29 s | 836 MiB
Subtitles: French
Genre: Comedy

A comedy set in the offices of Heaven Inc. When God plans to destroy the Earth, two low-level angels must convince their boss to save humanity. They bet him they can pull off their most impossible miracle yet: help two humans fall in love.

Miracle.Workers.2019.S01E02.MULTi.1080p.HDTV.H264-DEAL.mkv (835.5 MB)



General
Unique ID : 206685359734019279859758068211007385033 (0x9B7E26FF9C80F2F574B3C2E3B0886DC9)
Complete name : ./Miracle.Workers.2019.S01E02.MULTi.1080p.HDTV.H264-DEAL.mkv
Format : Matroska
Format version : Version 4 / Version 2
File size : 836 MiB
Duration : 19 min 29 s
Overall bit rate : 5 991 kb/s
Encoded date : UTC 2019-03-30 21:01:58
Writing application : mkvmerge v32.0.0 ('Astral Progressions') 32-bit
Writing library : libebml v1.3.7 + libmatroska v1.5.0

Video
ID : 1
Format : AVC
Format/Info : Advanced Video Codec
Format profile : High@L4
Format settings : CABAC / 4 Ref Frames
Format settings, CABAC : Yes
Format settings, RefFrames : 4 frames
Codec ID : V_MPEG4/ISO/AVC
Duration : 19 min 29 s
Bit rate : 5 604 kb/s
Width : 1 920 pixels
Height : 1 080 pixels
Display aspect ratio : 16:9
Frame rate mode : Constant
Frame rate : 25.000 FPS
Standard : Component
Color space : YUV
Chroma subsampling : 4:2:0
Bit depth : 8 bits
Scan type : MBAFF
Scan type, store method : Interleaved fields
Scan order : Top Field First
Bits/(Pixel*Frame) : 0.108
Stream size : 782 MiB (94%)
Default : Yes
Forced : No
Color range : Limited
Color primaries : BT.709
Transfer characteristics : BT.709
Matrix coefficients : BT.709

Audio #1
ID : 2
Format : AC-3
Format/Info : Audio Coding 3
Format settings, Endianness : Big
Codec ID : A_AC3
Duration : 19 min 29 s
Bit rate mode : Constant
Bit rate : 192 kb/s
Channel(s) : 2 channels
Channel positions : Front: L R
Sampling rate : 48.0 kHz
Frame rate : 31.250 FPS (1536 SPF)
Bit depth : 16 bits
Compression mode : Lossy
Stream size : 26.8 MiB (3%)
Title : French
Language : French
Service kind : Complete Main
Default : Yes
Forced : No

Audio #2
ID : 3
Format : AC-3
Format/Info : Audio Coding 3
Format settings, Endianness : Big
Codec ID : A_AC3
Duration : 19 min 29 s
Bit rate mode : Constant
Bit rate : 192 kb/s
Channel(s) : 2 channels
Channel positions : Front: L R
Sampling rate : 48.0 kHz
Frame rate : 31.250 FPS (1536 SPF)
Bit depth : 16 bits
Compression mode : Lossy
Stream size : 26.8 MiB (3%)
Title : English
Language : English
Service kind : Complete Main
Default : No
Forced : No

Text
ID : 4
Format : UTF-8
Codec ID : S_TEXT/UTF8
Codec ID/Info : UTF-8 Plain Text
Duration : 19 min 22 s
Bit rate : 78 b/s
Count of elements : 380
Stream size : 11.2 KiB (0%)
Title : French Full
Language : French
Default : No
Forced : No





Miracle Workers S01E02


Miracle Workers S01E02


Miracle Workers S01E02


Miracle Workers S01E02


Miracle Workers S01E02

All episodes