Index
# A B C D E F G H I J K L M N O P Q R S T U V W Y Z
Tags
Language
Tags

Featured TV Shows


Miracle Workers S01E03

Posted By: Tavaz
1080p (FullHD) / WEB-DL IMDb
Miracle Workers S01E03

Miracle Workers S01E03
WEB-DL | MKV | 1920x1080 | English | H264 @ 9317 kbps | E-AC-3 @ 640 kbps | 20 min 34 s | 1.43 GiB
Subtitles: English
Genre: Comedy

A comedy set in the offices of Heaven Inc. When God plans to destroy the Earth, two low-level angels must convince their boss to save humanity. They bet him they can pull off their most impossible miracle yet: help two humans fall in love.

Miracle.Workers.2019.S01E03.12.Days.1080p.AMZN.WEB-DL.DDP5.1.H.264-QOQ.mkv (1.4 GB)



General
Unique ID : 211415460288587671414556763051481134932 (0x9F0D22F618763F4165624EED07B07754)
Complete name : ./Miracle.Workers.2019.S01E03.12.Days.1080p.AMZN.WEB-DL.DDP5.1.H.264-QOQ.mkv
Format : Matroska
Format version : Version 4 / Version 2
File size : 1.43 GiB
Duration : 20 min 34 s
Overall bit rate : 9 960 kb/s
Encoded date : UTC 2019-02-27 11:45:02
Writing application : mkvmerge v23.0.0 ('The Bride Said No') 64-bit
Writing library : libebml v1.3.6 + libmatroska v1.4.9

Video
ID : 1
Format : AVC
Format/Info : Advanced Video Codec
Format profile : High@L4
Format settings : CABAC / 4 Ref Frames
Format settings, CABAC : Yes
Format settings, RefFrames : 4 frames
Codec ID : V_MPEG4/ISO/AVC
Duration : 20 min 34 s
Bit rate mode : Constant
Bit rate : 9 317 kb/s
Nominal bit rate : 10 000 kb/s
Width : 1 920 pixels
Height : 1 080 pixels
Display aspect ratio : 16:9
Frame rate mode : Constant
Frame rate : 23.976 (24000/1001) FPS
Color space : YUV
Chroma subsampling : 4:2:0
Bit depth : 8 bits
Scan type : Progressive
Bits/(Pixel*Frame) : 0.187
Stream size : 1.34 GiB (94%)
Default : Yes
Forced : No
Color range : Limited
Color primaries : BT.709
Transfer characteristics : BT.709
Matrix coefficients : BT.709

Audio
ID : 2
Format : E-AC-3
Format/Info : Enhanced Audio Coding 3
Format settings, Endianness : Big
Codec ID : A_EAC3
Duration : 20 min 34 s
Bit rate mode : Constant
Bit rate : 640 kb/s
Channel(s) : 6 channels
Channel positions : Front: L C R, Side: L R, LFE
Sampling rate : 48.0 kHz
Frame rate : 187.500 FPS (256 SPF)
Compression mode : Lossy
Stream size : 94.2 MiB (6%)
Language : English
Service kind : Complete Main
Default : Yes
Forced : No

Text #1
ID : 3
Format : UTF-8
Codec ID : S_TEXT/UTF8
Codec ID/Info : UTF-8 Plain Text
Duration : 20 min 28 s
Bit rate : 93 b/s
Count of elements : 485
Stream size : 14.0 KiB (0%)
Language : English
Default : No
Forced : No

Text #2
ID : 4
Format : UTF-8
Codec ID : S_TEXT/UTF8
Codec ID/Info : UTF-8 Plain Text
Duration : 20 min 28 s
Bit rate : 98 b/s
Count of elements : 535
Stream size : 14.8 KiB (0%)
Title : SDH
Language : English
Default : No
Forced : No





Miracle Workers S01E03


Miracle Workers S01E03


Miracle Workers S01E03


Miracle Workers S01E03


Miracle Workers S01E03

All episodes