Index
# A B C D E F G H I J K L M N O P Q R S T U V W Y Z
Tags
Language
Tags

Featured TV Shows


Miracle Workers S02E01

Posted By:
720p (HD) / WEBRip IMDb
Miracle Workers S02E01

Miracle Workers S02E01
WEBRip | MKV | 1280x720 | Français / English | H264 @ 3400 kbps | AAC @ 128 kbps | 20 min 37 s | 536 MiB
Subtitles: Français
Genre: Comedy


A comedy set in the offices of Heaven Inc. When God plans to destroy the Earth, two low-level angels must convince their boss to save humanity. They bet him they can pull off their most impossible miracle yet: help two humans fall in love.

c4204e39abcf454b87ff2f4bdd2f3a2e.mkv (536.4 MB)



General
Unique ID : 146056888473145091776469166939237827318 (0x6DE188941335676D4FC24FC0D4A0C2F6)
Complete name : ./c4204e39abcf454b87ff2f4bdd2f3a2e.mkv
Format : Matroska
Format version : Version 4 / Version 2
File size : 536 MiB
Duration : 20 min 37 s
Overall bit rate : 3 636 kb/s
Encoded date : UTC 2020-08-18 21:11:21
Writing application : mkvmerge v49.0.0 ('Sick Of Losing Soulmates') 64-bit
Writing library : libebml v1.4.0 + libmatroska v1.6.1

Video
ID : 1
Format : AVC
Format/Info : Advanced Video Codec
Format profile : High@L3.1
Format settings : CABAC / 2 Ref Frames
Format settings, CABAC : Yes
Format settings, RefFrames : 2 frames
Format settings, GOP : M=1, N=50
Codec ID : V_MPEG4/ISO/AVC
Duration : 20 min 37 s
Bit rate mode : Constant
Bit rate : 3 400 kb/s
Width : 1 280 pixels
Height : 720 pixels
Display aspect ratio : 16:9
Frame rate mode : Constant
Frame rate : 25.000 FPS
Color space : YUV
Chroma subsampling : 4:2:0
Bit depth : 8 bits
Scan type : Progressive
Bits/(Pixel*Frame) : 0.148
Stream size : 498 MiB (93%)
Default : Yes
Forced : No
Color range : Limited
Color primaries : BT.709
Transfer characteristics : BT.709
Matrix coefficients : BT.709

Audio #1
ID : 2
Format : AAC
Format/Info : Advanced Audio Codec
Format profile : LC
Codec ID : A_AAC-2
Duration : 20 min 37 s
Bit rate : 128 kb/s
Channel(s) : 2 channels
Channel positions : Front: L R
Sampling rate : 48.0 kHz
Frame rate : 46.875 FPS (1024 SPF)
Compression mode : Lossy
Stream size : 18.9 MiB (4%)
Title : French
Language : French
Default : Yes
Forced : No

Audio #2
ID : 3
Format : AAC
Format/Info : Advanced Audio Codec
Format profile : LC
Codec ID : A_AAC-2
Duration : 20 min 37 s
Bit rate : 128 kb/s
Channel(s) : 2 channels
Channel positions : Front: L R
Sampling rate : 48.0 kHz
Frame rate : 46.875 FPS (1024 SPF)
Compression mode : Lossy
Stream size : 18.9 MiB (4%)
Title : English
Language : English
Default : No
Forced : No

Text
ID : 4
Format : UTF-8
Codec ID : S_TEXT/UTF8
Codec ID/Info : UTF-8 Plain Text
Duration : 20 min 22 s
Bit rate : 75 b/s
Count of elements : 395
Stream size : 11.2 KiB (0%)
Title : French
Language : French
Default : No
Forced : No





Miracle Workers S02E01


Miracle Workers S02E01


Miracle Workers S02E01


Miracle Workers S02E01


Miracle Workers S02E01

All episodes