Index
# A B C D E F G H I J K L M N O P Q R S T U V W Y Z
Tags
Language
Tags

Featured TV Shows


Miracle Workers S02E07

Posted By: Tavaz
1080p (FullHD) / WEB-DL IMDb
Miracle Workers S02E07

Miracle Workers S02E07
WEB-DL | MKV | 1920x1080 | H264 @ 8457 kbps | E-AC-3 @ 640 kbps | 19 min 23 s | 1.26 GiB
Genre: Komedi


A comedy set in the offices of Heaven Inc. When God plans to destroy the Earth, two low-level angels must convince their boss to save humanity. They bet him they can pull off their most impossible miracle yet: help two humans fall in love.

3b4afca80bab4fbfa11de897d46b6c70.mkv (1.3 GB)



General
Unique ID : 271897880370829440473473357994203256296 (0xCC8DA0809794893E01EC1D5D0FD795E8)
Complete name : ./3b4afca80bab4fbfa11de897d46b6c70.mkv
Format : Matroska
Format version : Version 4 / Version 2
File size : 1.26 GiB
Duration : 19 min 23 s
Overall bit rate : 9 282 kb/s
Writing application : Lavf57.82.100
Writing library : Lavf57.82.100
ErrorDetectionType : Per level 1

Video
ID : 1
Format : AVC
Format/Info : Advanced Video Codec
Format profile : High@L4
Format settings : CABAC / 4 Ref Frames
Format settings, CABAC : Yes
Format settings, RefFrames : 4 frames
Codec ID : V_MPEG4/ISO/AVC
Duration : 19 min 23 s
Bit rate mode : Constant
Bit rate : 8 457 kb/s
Nominal bit rate : 10 000 kb/s
Width : 1 920 pixels
Height : 1 080 pixels
Display aspect ratio : 16:9
Frame rate mode : Constant
Frame rate : 23.976 (24000/1001) FPS
Color space : YUV
Chroma subsampling : 4:2:0
Bit depth : 8 bits
Scan type : Progressive
Bits/(Pixel*Frame) : 0.170
Stream size : 1.15 GiB (91%)
Default : Yes
Forced : No
Color range : Limited
Color primaries : BT.709
Transfer characteristics : BT.709
Matrix coefficients : BT.709

Audio
ID : 2
Format : E-AC-3
Format/Info : Enhanced Audio Coding 3
Format settings, Endianness : Big
Codec ID : A_EAC3
Duration : 19 min 23 s
Bit rate mode : Constant
Bit rate : 640 kb/s
Channel(s) : 6 channels
Channel positions : Front: L C R, Side: L R, LFE
Sampling rate : 48.0 kHz
Frame rate : 187.500 FPS (256 SPF)
Bit depth : 32 bits
Compression mode : Lossy
Stream size : 88.8 MiB (7%)
Service kind : Complete Main
Default : Yes
Forced : No

Text
ID : 3
Format : ASS
Codec ID : S_TEXT/ASS
Codec ID/Info : Advanced Sub Station Alpha
Duration : 18 min 47 s
Compression mode : Lossless
Writing library : Lavc57.106.101 ssa
Default : No
Forced : No





Miracle Workers S02E07


Miracle Workers S02E07


Miracle Workers S02E07


Miracle Workers S02E07


Miracle Workers S02E07

All episodes