Index
# A B C D E F G H I J K L M N O P Q R S T U V W Y Z
Tags
Language
Tags

Featured TV Shows


Miracle Workers S02E09

Posted By: Tavaz
1080p (FullHD) / WEB-DL IMDb
Miracle Workers S02E09

Miracle Workers S02E09
WEB-DL | MKV | 1920x1080 | English | H264 @ 8832 kbps | E-AC-3 @ 640 kbps | 19 min 24 s | 1.28 GiB
Subtitles: English
Genre: Comedy


A comedy set in the offices of Heaven Inc. When God plans to destroy the Earth, two low-level angels must convince their boss to save humanity. They bet him they can pull off their most impossible miracle yet: help two humans fall in love.

e93697ee1ac34b4a904ba3d502220be5.mkv (1.3 GB)



General
Unique ID : 38931748016372950672745655753621853899 (0x1D49FB5FB6677F585A3C35220F9B56CB)
Complete name : ./e93697ee1ac34b4a904ba3d502220be5.mkv
Format : Matroska
Format version : Version 4 / Version 2
File size : 1.28 GiB
Duration : 19 min 24 s
Overall bit rate : 9 475 kb/s
Encoded date : UTC 2020-03-25 12:17:05
Writing application : mkvmerge v31.0.0 ('Dolores In A Shoestand') 64-bit
Writing library : libebml v1.3.6 + libmatroska v1.4.9

Video
ID : 1
Format : AVC
Format/Info : Advanced Video Codec
Format profile : High@L4
Format settings : CABAC / 4 Ref Frames
Format settings, CABAC : Yes
Format settings, RefFrames : 4 frames
Codec ID : V_MPEG4/ISO/AVC
Duration : 19 min 24 s
Bit rate mode : Constant
Bit rate : 8 833 kb/s
Nominal bit rate : 10 000 kb/s
Width : 1 920 pixels
Height : 1 080 pixels
Display aspect ratio : 16:9
Frame rate mode : Constant
Frame rate : 23.976 (24000/1001) FPS
Color space : YUV
Chroma subsampling : 4:2:0
Bit depth : 8 bits
Scan type : Progressive
Bits/(Pixel*Frame) : 0.178
Stream size : 1.20 GiB (93%)
Default : Yes
Forced : No
Color range : Limited
Color primaries : BT.709
Transfer characteristics : BT.709
Matrix coefficients : BT.709

Audio
ID : 2
Format : E-AC-3
Format/Info : Enhanced Audio Coding 3
Format settings, Endianness : Big
Codec ID : A_EAC3
Duration : 19 min 24 s
Bit rate mode : Constant
Bit rate : 640 kb/s
Channel(s) : 6 channels
Channel positions : Front: L C R, Side: L R, LFE
Sampling rate : 48.0 kHz
Frame rate : 187.500 FPS (256 SPF)
Compression mode : Lossy
Stream size : 88.8 MiB (7%)
Language : English
Service kind : Complete Main
Default : Yes
Forced : No

Text #1
ID : 3
Format : UTF-8
Codec ID : S_TEXT/UTF8
Codec ID/Info : UTF-8 Plain Text
Duration : 18 min 40 s
Bit rate : 95 b/s
Count of elements : 491
Stream size : 13.1 KiB (0%)
Language : English
Default : No
Forced : No

Text #2
ID : 4
Format : UTF-8
Codec ID : S_TEXT/UTF8
Codec ID/Info : UTF-8 Plain Text
Duration : 19 min 19 s
Bit rate : 98 b/s
Count of elements : 551
Stream size : 14.0 KiB (0%)
Title : SDH
Language : English
Default : No
Forced : No





Miracle Workers S02E09


Miracle Workers S02E09


Miracle Workers S02E09


Miracle Workers S02E09


Miracle Workers S02E09

All episodes