Index
# A B C D E F G H I J K L M N O P Q R S T U V W Y Z
Tags
Language
Tags

Featured TV Shows


Miracle Workers S02E10

Posted By: Tavaz
1080p (FullHD) / WEBRip IMDb
Miracle Workers S02E10

Miracle Workers S02E10
WEBRip | MKV | 1920x1080 | H264 @ 4657 kbps | AAC @ 125 kbps | 20 min 22 s | 697 MiB
Genre: Comedy


A comedy set in the offices of Heaven Inc. When God plans to destroy the Earth, two low-level angels must convince their boss to save humanity. They bet him they can pull off their most impossible miracle yet: help two humans fall in love.

d77d53c6a02142f299015b8e71ca44ef.mkv (697.3 MB)



General
Unique ID : 54112447351728910824259396232219120064 (0x28B5ADA339CA94A5C17ABC298C1ED1C0)
Complete name : ./d77d53c6a02142f299015b8e71ca44ef.mkv
Format : Matroska
Format version : Version 4 / Version 2
File size : 697 MiB
Duration : 20 min 22 s
Overall bit rate : 4 785 kb/s
Encoded date : UTC 2020-04-01 03:21:24
Writing application : mkvmerge v38.0.0 ('The Silent Type') 64-bit
Writing library : libebml v1.3.9 + libmatroska v1.5.2

Video
ID : 1
Format : AVC
Format/Info : Advanced Video Codec
Format profile : High@L4.1
Format settings : CABAC / 4 Ref Frames
Format settings, CABAC : Yes
Format settings, RefFrames : 4 frames
Codec ID : V_MPEG4/ISO/AVC
Duration : 20 min 22 s
Bit rate : 4 657 kb/s
Width : 1 920 pixels
Height : 1 080 pixels
Display aspect ratio : 16:9
Frame rate mode : Constant
Frame rate : 23.976 (24000/1001) FPS
Color space : YUV
Chroma subsampling : 4:2:0
Bit depth : 8 bits
Scan type : Progressive
Bits/(Pixel*Frame) : 0.094
Stream size : 679 MiB (97%)
Writing library : x264 core 158 r2988 7817004
Encoding settings : cabac=1 / ref=4 / deblock=1:-3:-3 / analyse=0x3:0x113 / me=umh / subme=8 / psy=1 / psy_rd=1.00:0.00 / mixed_ref=1 / me_range=16 / chroma_me=1 / trellis=2 / 8x8dct=1 / cqm=0 / deadzone=21,11 / fast_pskip=1 / chroma_qp_offset=-2 / threads=12 / lookahead_threads=2 / sliced_threads=0 / nr=0 / decimate=1 / interlaced=0 / bluray_compat=0 / constrained_intra=0 / bframes=3 / b_pyramid=2 / b_adapt=1 / b_bias=0 / direct=3 / weightb=1 / open_gop=0 / weightp=2 / keyint=250 / keyint_min=23 / scenecut=40 / intra_refresh=0 / rc_lookahead=50 / rc=crf / mbtree=1 / crf=18.5 / qcomp=0.60 / qpmin=0 / qpmax=69 / qpstep=4 / ip_ratio=1.40 / aq=1:1.00
Default : Yes
Forced : No

Audio
ID : 2
Format : AAC
Format/Info : Advanced Audio Codec
Format profile : LC
Codec ID : A_AAC-2
Duration : 20 min 22 s
Bit rate : 126 kb/s
Channel(s) : 2 channels
Channel positions : Front: L R
Sampling rate : 44.1 kHz
Frame rate : 43.066 FPS (1024 SPF)
Compression mode : Lossy
Delay relative to video : 20 ms
Stream size : 18.3 MiB (3%)
Default : Yes
Forced : No





Miracle Workers S02E10


Miracle Workers S02E10


Miracle Workers S02E10


Miracle Workers S02E10


Miracle Workers S02E10

All episodes