Index
# A B C D E F G H I J K L M N O P Q R S T U V W Y Z
Tags
Language
Tags

Featured TV Shows


Miracle Workers S01E01

Posted By:
720p (HD) / WEB-DL IMDb
Miracle Workers S01E01

Miracle Workers S01E01
WEB-DL | MKV | 1280x720 | English | H264 @ 4194 kbps | E-AC-3 @ 640 kbps | 21 min 49 s | 755 MiB
Subtitles: English
Genre: Comedy

A comedy set in the offices of Heaven Inc. When God plans to destroy the Earth, two low-level angels must convince their boss to save humanity. They bet him they can pull off their most impossible miracle yet: help two humans fall in love.

3c515afa06954cd2a8b05f7c1766ac68.mkv (754.9 MB)



General
Unique ID : 8406298856091445738611733521192512219 (0x652FE88671D89B56EAF046C8148EADB)
Complete name : ./3c515afa06954cd2a8b05f7c1766ac68.mkv
Format : Matroska
Format version : Version 4 / Version 2
File size : 755 MiB
Duration : 21 min 49 s
Overall bit rate : 4 837 kb/s
Encoded date : UTC 2019-02-13 22:16:01
Writing application : mkvmerge v23.0.0 ('The Bride Said No') 64-bit
Writing library : libebml v1.3.6 + libmatroska v1.4.9

Video
ID : 1
Format : AVC
Format/Info : Advanced Video Codec
Format profile : High@L3.1
Format settings : CABAC / 4 Ref Frames
Format settings, CABAC : Yes
Format settings, RefFrames : 4 frames
Codec ID : V_MPEG4/ISO/AVC
Duration : 21 min 49 s
Bit rate mode : Constant
Bit rate : 4 194 kb/s
Nominal bit rate : 6 000 kb/s
Width : 1 280 pixels
Height : 720 pixels
Display aspect ratio : 16:9
Frame rate mode : Constant
Frame rate : 23.976 (24000/1001) FPS
Color space : YUV
Chroma subsampling : 4:2:0
Bit depth : 8 bits
Scan type : Progressive
Bits/(Pixel*Frame) : 0.190
Stream size : 655 MiB (87%)
Default : Yes
Forced : No
Color range : Limited
Color primaries : BT.709
Transfer characteristics : BT.709
Matrix coefficients : BT.709

Audio
ID : 2
Format : E-AC-3
Format/Info : Enhanced Audio Coding 3
Format settings, Endianness : Big
Codec ID : A_EAC3
Duration : 21 min 49 s
Bit rate mode : Constant
Bit rate : 640 kb/s
Channel(s) : 6 channels
Channel positions : Front: L C R, Side: L R, LFE
Sampling rate : 48.0 kHz
Frame rate : 187.500 FPS (256 SPF)
Compression mode : Lossy
Stream size : 99.9 MiB (13%)
Language : English
Service kind : Complete Main
Default : Yes
Forced : No

Text #1
ID : 3
Format : UTF-8
Codec ID : S_TEXT/UTF8
Codec ID/Info : UTF-8 Plain Text
Duration : 21 min 44 s
Bit rate : 83 b/s
Count of elements : 462
Stream size : 13.4 KiB (0%)
Language : English
Default : No
Forced : No

Text #2
ID : 4
Format : UTF-8
Codec ID : S_TEXT/UTF8
Codec ID/Info : UTF-8 Plain Text
Duration : 21 min 44 s
Bit rate : 92 b/s
Count of elements : 534
Stream size : 14.7 KiB (0%)
Title : SDH
Language : English
Default : No
Forced : No





Miracle Workers S01E01


Miracle Workers S01E01


Miracle Workers S01E01


Miracle Workers S01E01


Miracle Workers S01E01

All episodes