Index
# A B C D E F G H I J K L M N O P Q R S T U V W Y Z
Tags
Language
Tags

Featured TV Shows


Miracle Workers S03E01

Posted By:
720p (HD) / WEB-DL IMDb
Miracle Workers S03E01

Miracle Workers S03E01
WEB-DL | MKV | 1280x720 | English | H264 @ 5507 kbps | E-AC-3 @ 640 kbps | 20 min 50 s | 917 MiB
Subtitles: English
Genre: Comedy


The first season of this comedy anthology is set in the offices of Heaven Inc. When God plans to destroy the Earth, two low-level angels must convince their boss to save humanity. They bet him they can pull off their most impossible miracle yet: help two humans fall in love.

726d94de533a4610941313129095990b.mkv (916.6 MB)



General
Unique ID : 240337717982227611858577847271294232025 (0xB4CF5C5C4267D9B7C09AF3006BF3E5D9)
Complete name : ./726d94de533a4610941313129095990b.mkv
Format : Matroska
Format version : Version 4 / Version 2
File size : 917 MiB
Duration : 20 min 50 s
Overall bit rate : 6 150 kb/s
Movie name : Miracle Workers - S03E01 - Hittin' The Trail
Encoded date : UTC 2021-09-04 22:13:15
Writing application : mkvmerge v61.0.0 ('So') 64-bit
Writing library : libebml v1.4.2 + libmatroska v1.6.4
IMDB : tt7529770
TMDB : tv/78950

Video
ID : 1
Format : AVC
Format/Info : Advanced Video Codec
Format profile : High@L3.1
Format settings : CABAC / 4 Ref Frames
Format settings, CABAC : Yes
Format settings, RefFrames : 4 frames
Codec ID : V_MPEG4/ISO/AVC
Duration : 20 min 50 s
Bit rate mode : Constant
Bit rate : 5 507 kb/s
Nominal bit rate : 6 000 kb/s
Width : 1 280 pixels
Height : 720 pixels
Display aspect ratio : 16:9
Frame rate mode : Constant
Frame rate : 23.976 (24000/1001) FPS
Color space : YUV
Chroma subsampling : 4:2:0
Bit depth : 8 bits
Scan type : Progressive
Bits/(Pixel*Frame) : 0.249
Stream size : 821 MiB (90%)
Default : Yes
Forced : No
Color range : Limited
Color primaries : BT.709
Transfer characteristics : BT.709
Matrix coefficients : BT.709

Audio
ID : 2
Format : E-AC-3
Format/Info : Enhanced Audio Coding 3
Format settings, Endianness : Big
Codec ID : A_EAC3
Duration : 20 min 50 s
Bit rate mode : Constant
Bit rate : 640 kb/s
Channel(s) : 6 channels
Channel positions : Front: L C R, Side: L R, LFE
Sampling rate : 48.0 kHz
Frame rate : 187.500 FPS (256 SPF)
Compression mode : Lossy
Stream size : 95.4 MiB (10%)
Language : English
Service kind : Complete Main
Default : Yes
Forced : No

Text #1
ID : 3
Format : UTF-8
Codec ID : S_TEXT/UTF8
Codec ID/Info : UTF-8 Plain Text
Duration : 20 min 41 s
Bit rate : 100 b/s
Count of elements : 486
Stream size : 15.2 KiB (0%)
Title : English
Language : English
Default : No
Forced : No

Text #2
ID : 4
Format : UTF-8
Codec ID : S_TEXT/UTF8
Codec ID/Info : UTF-8 Plain Text
Duration : 20 min 41 s
Bit rate : 102 b/s
Count of elements : 511
Stream size : 15.6 KiB (0%)
Title : English [CC]
Language : English
Default : No
Forced : No





Miracle Workers S03E01


Miracle Workers S03E01


Miracle Workers S03E01


Miracle Workers S03E01


Miracle Workers S03E01

All episodes