Featured TV Shows


Modern Family S09E13

Posted By: Tavaz
1080p (FullHD) / WEB-DL IMDb
Modern Family S09E13

Modern Family S09E13
WEB-DL | MKV | 1920x1080 | English | H264 @ 12056 kbps | E-AC-3 @ 640 kbps | 21 min 33 s | 1.91 GiB
Subtitles: English
Genre: Comedy

The Pritchett-Dunphy-Tucker clan is a wonderfully large and blended family. They give us an honest and often hilarious look into the sometimes warm, sometimes twisted, embrace of the modern family.

Modern.Family.S09E13.In.Your.Head.1080p.AMZN.WEB-DL.DDP5.1.H.264-NTb.mkv (1.9 GB)



General
Unique ID : 189296274232298478009298665868068050635 (0x8E6922E3EF0690488AD911B507FED6CB)
Complete name : ./Modern.Family.S09E13.In.Your.Head.1080p.AMZN.WEB-DL.DDP5.1.H.264-NTb.mkv
Format : Matroska
Format version : Version 4 / Version 2
File size : 1.91 GiB
Duration : 21 min 33 s
Overall bit rate mode : Variable
Overall bit rate : 12.7 Mb/s
Encoded date : UTC 2018-01-18 21:11:22
Writing application : mkvmerge v13.0.0 ('The Juggler') 64bit
Writing library : libebml v1.3.4 + libmatroska v1.4.5

Video
ID : 1
Format : AVC
Format/Info : Advanced Video Codec
Format profile : High@L4
Format settings : CABAC / 4 Ref Frames
Format settings, CABAC : Yes
Format settings, RefFrames : 4 frames
Codec ID : V_MPEG4/ISO/AVC
Duration : 21 min 33 s
Bit rate mode : Variable
Bit rate : 12.1 Mb/s
Maximum bit rate : 15.0 Mb/s
Width : 1 920 pixels
Height : 1 080 pixels
Display aspect ratio : 16:9
Frame rate mode : Constant
Frame rate : 23.976 (24000/1001) FPS
Color space : YUV
Chroma subsampling : 4:2:0
Bit depth : 8 bits
Scan type : Progressive
Bits/(Pixel*Frame) : 0.243
Stream size : 1.82 GiB (95%)
Default : Yes
Forced : No
Color range : Limited
Color primaries : BT.709
Transfer characteristics : BT.709
Matrix coefficients : BT.709

Audio
ID : 2
Format : E-AC-3
Format/Info : Enhanced Audio Coding 3
Format settings, Endianness : Big
Codec ID : A_EAC3
Duration : 21 min 33 s
Bit rate mode : Constant
Bit rate : 640 kb/s
Channel(s) : 6 channels
Channel positions : Front: L C R, Side: L R, LFE
Sampling rate : 48.0 kHz
Frame rate : 187.500 FPS (256 SPF)
Compression mode : Lossy
Stream size : 98.7 MiB (5%)
Language : English
Service kind : Complete Main
Default : Yes
Forced : No

Text #1
ID : 3
Format : UTF-8
Codec ID : S_TEXT/UTF8
Codec ID/Info : UTF-8 Plain Text
Duration : 21 min 21 s
Bit rate : 124 b/s
Count of elements : 577
Stream size : 19.4 KiB (0%)
Language : English
Default : No
Forced : No

Text #2
ID : 4
Format : UTF-8
Codec ID : S_TEXT/UTF8
Codec ID/Info : UTF-8 Plain Text
Duration : 21 min 21 s
Bit rate : 127 b/s
Count of elements : 586
Stream size : 19.9 KiB (0%)
Title : SDH
Language : English
Default : No
Forced : No





Modern Family S09E13


Modern Family S09E13


Modern Family S09E13


Modern Family S09E13


Modern Family S09E13

All episodes