Featured TV Shows


Mom S05E09

Posted By: Tavaz
720p (HD) / WEBRip IMDb
Mom S05E09

Mom S05E09
WEBRip | MKV | 1280x720 | English | H264 @ 4348 kbps | E-AC-3 @ 640 kbps | 19 min 51 s | 709 MiB
Subtitles: English
Genre: Comedy

Aan irreverent and outrageous take on true family love‐and dysfunction. Newly sober single mom Christy struggles to raise two children in a world full of temptations and pitfalls. Testing her sobriety is her formerly estranged mother, now back in Christy's life and eager to share passive-aggressive insights into her daughter's many mistakes.

Mom.S05E09.Teenage.Vampires.and.a.White.Russian.720p.AMZN.WEBRip.DDP5.1.x264-NTb.mkv (708.8 MB)



General
Unique ID : 330730719566679261972546663091743363257 (0xF8D06B6D25F55E198127EB07C2FE10B9)
Complete name : ./Mom.S05E09.Teenage.Vampires.and.a.White.Russian.720p.AMZN.WEBRip.DDP5.1.x264-NTb.mkv
Format : Matroska
Format version : Version 4 / Version 2
File size : 709 MiB
Duration : 19 min 51 s
Overall bit rate : 4 990 kb/s
Encoded date : UTC 2018-01-06 09:04:41
Writing application : mkvmerge v8.8.0 ('Wind at my back') 64bit
Writing library : libebml v1.3.3 + libmatroska v1.4.4

Video
ID : 1
Format : AVC
Format/Info : Advanced Video Codec
Format profile : High@L4.1
Format settings : CABAC / 9 Ref Frames
Format settings, CABAC : Yes
Format settings, RefFrames : 9 frames
Codec ID : V_MPEG4/ISO/AVC
Duration : 19 min 51 s
Bit rate : 4 348 kb/s
Width : 1 280 pixels
Height : 720 pixels
Display aspect ratio : 16:9
Frame rate mode : Constant
Frame rate : 23.976 (24000/1001) FPS
Color space : YUV
Chroma subsampling : 4:2:0
Bit depth : 8 bits
Scan type : Progressive
Bits/(Pixel*Frame) : 0.197
Stream size : 618 MiB (87%)
Writing library : x264 core 148 r2643 5c65704
Encoding settings : cabac=1 / ref=9 / deblock=1:-3:-3 / analyse=0x3:0x133 / me=umh / subme=11 / psy=1 / psy_rd=1.00:0.00 / mixed_ref=1 / me_range=32 / chroma_me=1 / trellis=2 / 8x8dct=1 / cqm=0 / deadzone=21,11 / fast_pskip=0 / chroma_qp_offset=-2 / threads=6 / lookahead_threads=1 / sliced_threads=0 / nr=0 / decimate=0 / interlaced=0 / bluray_compat=0 / constrained_intra=0 / bframes=8 / b_pyramid=2 / b_adapt=2 / b_bias=0 / direct=3 / weightb=1 / open_gop=0 / weightp=2 / keyint=250 / keyint_min=23 / scenecut=40 / intra_refresh=0 / rc=crf / mbtree=0 / crf=17.0 / qcomp=0.60 / qpmin=0 / qpmax=69 / qpstep=4 / ip_ratio=1.40 / pb_ratio=1.30 / aq=3:0.85
Default : Yes
Forced : No

Audio
ID : 2
Format : E-AC-3
Format/Info : Enhanced Audio Coding 3
Format settings, Endianness : Big
Codec ID : A_EAC3
Duration : 19 min 51 s
Bit rate mode : Constant
Bit rate : 640 kb/s
Channel(s) : 6 channels
Channel positions : Front: L C R, Side: L R, LFE
Sampling rate : 48.0 kHz
Frame rate : 187.500 FPS (256 SPF)
Compression mode : Lossy
Stream size : 90.9 MiB (13%)
Language : English
Service kind : Complete Main
Default : Yes
Forced : No

Text #1
ID : 3
Format : UTF-8
Codec ID : S_TEXT/UTF8
Codec ID/Info : UTF-8 Plain Text
Duration : 19 min 22 s
Bit rate : 89 b/s
Count of elements : 421
Stream size : 12.8 KiB (0%)
Language : English
Default : No
Forced : No

Text #2
ID : 4
Format : UTF-8
Codec ID : S_TEXT/UTF8
Codec ID/Info : UTF-8 Plain Text
Duration : 19 min 22 s
Bit rate : 91 b/s
Count of elements : 427
Stream size : 13.0 KiB (0%)
Title : SDH
Language : English
Default : No
Forced : No





Mom S05E09


Mom S05E09


Mom S05E09


Mom S05E09


Mom S05E09

All episodes