Featured TV Shows


Mom S05E09

Posted By: Tavaz
1080p (FullHD) / WEBRip IMDb
Mom S05E09

Mom S05E09
WEBRip | MKV | 1920x1080 | English | H264 @ 9256 kbps | E-AC-3 @ 640 kbps | 19 min 51 s | 1.37 GiB
Subtitles: English
Genre: Comedy

Aan irreverent and outrageous take on true family love‐and dysfunction. Newly sober single mom Christy struggles to raise two children in a world full of temptations and pitfalls. Testing her sobriety is her formerly estranged mother, now back in Christy's life and eager to share passive-aggressive insights into her daughter's many mistakes.

Mom.S05E09.Teenage.Vampires.and.a.White.Russian.1080p.AMZN.WEB-DL.DDP5.1.H.264-NTb.mkv (1.4 GB)



General
Unique ID : 173809035305072318323701437109649704211 (0x82C2670ED254889CBD7A84A2E6DE8513)
Complete name : ./Mom.S05E09.Teenage.Vampires.and.a.White.Russian.1080p.AMZN.WEB-DL.DDP5.1.H.264-NTb.mkv
Format : Matroska
Format version : Version 4 / Version 2
File size : 1.37 GiB
Duration : 19 min 51 s
Overall bit rate mode : Variable
Overall bit rate : 9 899 kb/s
Encoded date : UTC 2018-01-05 22:56:41
Writing application : mkvmerge v10.0.0 ('To Drown In You') 64bit
Writing library : libebml v1.3.4 + libmatroska v1.4.5

Video
ID : 1
Format : AVC
Format/Info : Advanced Video Codec
Format profile : High@L4
Format settings : CABAC / 4 Ref Frames
Format settings, CABAC : Yes
Format settings, RefFrames : 4 frames
Codec ID : V_MPEG4/ISO/AVC
Duration : 19 min 51 s
Bit rate mode : Variable
Bit rate : 9 257 kb/s
Maximum bit rate : 15.0 Mb/s
Width : 1 920 pixels
Height : 1 080 pixels
Display aspect ratio : 16:9
Frame rate mode : Constant
Frame rate : 23.976 (24000/1001) FPS
Color space : YUV
Chroma subsampling : 4:2:0
Bit depth : 8 bits
Scan type : Progressive
Bits/(Pixel*Frame) : 0.186
Stream size : 1.28 GiB (94%)
Default : Yes
Forced : No
Color range : Limited
Color primaries : BT.709
Transfer characteristics : BT.709
Matrix coefficients : BT.709

Audio
ID : 2
Format : E-AC-3
Format/Info : Enhanced Audio Coding 3
Format settings, Endianness : Big
Codec ID : A_EAC3
Duration : 19 min 51 s
Bit rate mode : Constant
Bit rate : 640 kb/s
Channel(s) : 6 channels
Channel positions : Front: L C R, Side: L R, LFE
Sampling rate : 48.0 kHz
Frame rate : 187.500 FPS (256 SPF)
Compression mode : Lossy
Stream size : 90.9 MiB (6%)
Language : English
Service kind : Complete Main
Default : Yes
Forced : No

Text #1
ID : 3
Format : UTF-8
Codec ID : S_TEXT/UTF8
Codec ID/Info : UTF-8 Plain Text
Duration : 19 min 22 s
Bit rate : 89 b/s
Count of elements : 421
Stream size : 12.8 KiB (0%)
Language : English
Default : No
Forced : No

Text #2
ID : 4
Format : UTF-8
Codec ID : S_TEXT/UTF8
Codec ID/Info : UTF-8 Plain Text
Duration : 19 min 22 s
Bit rate : 91 b/s
Count of elements : 427
Stream size : 13.0 KiB (0%)
Title : SDH
Language : English
Default : No
Forced : No





Mom S05E09


Mom S05E09


Mom S05E09


Mom S05E09


Mom S05E09

All episodes