Featured TV Shows


Money Heist S02E01

Posted By: Tavaz
SD / WEBRip IMDb
Money Heist S02E01

Money Heist S02E01
WEBRip | MOV | 720x400 | English | H264 @ 1187 kbps | AAC @ 127 kbps | 50 min 34 s | 478 MiB
Genre: Crime, Drama

With the help of a crew of several experienced thieves, The Professor starts to execute his perfect plan to rob the National Coinage and Stamp Factory of Spain. It all runs smoothly - until love crosses their ways.

Money.Heist.S02E03.WEBRip.x264-RBB.mp4 (413.4 MB)
Money.Heist.S02E09.WEBRip.x264-RBB.mp4 (421.5 MB)
Money.Heist.S02E04.WEBRip.x264-RBB.mp4 (477.9 MB)
Money.Heist.S02E07.WEBRip.x264-RBB.mp4 (413.9 MB)
Money.Heist.S02E01.WEBRip.x264-RBB.mp4 (405.4 MB)
Money.Heist.S02E06.WEBRip.x264-RBB.mp4 (428.2 MB)
Money.Heist.S02E05.WEBRip.x264-RBB.mp4 (404.3 MB)
Money.Heist.S02E02.WEBRip.x264-RBB.mp4 (392.5 MB)
Money.Heist.S02E08.WEBRip.x264-RBB.mp4 (464.4 MB)



General
Complete name : ./Money.Heist.S02.WEBRip.x264-RBB/Money.Heist.S02E04.WEBRip.x264-RBB.mp4
Format : MPEG-4
Format profile : Base Media / Version 2
Codec ID : mp42 (mp42)
File size : 478 MiB
Duration : 50 min 34 s
Overall bit rate : 1 321 kb/s
Codirector : codirector
Production studio : studio
ContentType : Unknown Type
Encoded date : UTC 2018-04-10 13:29:09
Tagged date : UTC 2018-04-10 13:29:09

Video
ID : 1
Format : AVC
Format/Info : Advanced Video Codec
Format profile : Main@L4.1
Format settings : CABAC / 2 Ref Frames
Format settings, CABAC : Yes
Format settings, RefFrames : 2 frames
Format settings, GOP : M=3, N=25
Muxing mode : Container profile=Baseline@3.0
Codec ID : avc1
Codec ID/Info : Advanced Video Coding
Duration : 50 min 34 s
Bit rate : 1 187 kb/s
Width : 720 pixels
Height : 400 pixels
Display aspect ratio : 16:9
Frame rate mode : Constant
Frame rate : 25.000 FPS
Color space : YUV
Chroma subsampling : 4:2:0
Bit depth : 8 bits
Scan type : Progressive
Bits/(Pixel*Frame) : 0.165
Stream size : 429 MiB (90%)
Language : English
Encoded date : UTC 1952-04-09 13:29:09
Tagged date : UTC 1952-04-09 13:29:09

Audio
ID : 2
Format : AAC
Format/Info : Advanced Audio Codec
Format profile : LC
Codec ID : mp4a-40-2
Duration : 50 min 34 s
Bit rate mode : Constant
Bit rate : 127 kb/s
Channel(s) : 2 channels
Channel positions : Front: L R
Sampling rate : 48.0 kHz
Frame rate : 46.875 FPS (1024 SPF)
Compression mode : Lossy
Stream size : 46.1 MiB (10%)
Title : Stereo
Language : English
Default : Yes
Alternate group : 1
Encoded date : UTC 1952-04-09 13:29:09
Tagged date : UTC 1952-04-09 13:29:09





Money Heist S02E01


Money Heist S02E01


Money Heist S02E01


Money Heist S02E01


Money Heist S02E01

All episodes