Featured TV Shows


Moonshiners S07E00

Posted By: Tavaz
1080p (FullHD) / WEBRip IMDb
Moonshiners S07E00

Moonshiners S07E00
WEBRip | MKV | 1920x1080 | English | H264 @ 4920 kbps | AAC @ 126 kbps | 41 min 58 s | 1.49 GiB

Think the days of bootleggers, backwoods stills and "white lightning" are over? Not a chance! It's a multi-million dollar industry. But perhaps more importantly to the moonshiners, it's a tradition dating back hundreds of years, passed down to them from their forefathers. It's part of their history and culture. While this practice is surprisingly alive and well, it's not always legal. Moonshiners tells the story of those who brew their shine - often in the woods near their homes using camouflaged equipment - and the local authorities who try to keep them honest. Viewers will witness practices rarely, if ever, seen on television including the sacred rite of passage for a moonshiner - firing up the still for the first time. They will also meet legends, including notorious moonshiner Marvin "Popcorn" Sutton.

efc2b0c115dd4469933208faa162a1c3.mkv (1.5 GB)



General
Unique ID : 253044371701679372915744932109372785845 (0xBE5E92C1F25B2A673B7163855ADE84B5)
Complete name : ./efc2b0c115dd4469933208faa162a1c3.mkv
Format : Matroska
Format version : Version 4 / Version 2
File size : 1.49 GiB
Duration : 41 min 58 s
Overall bit rate : 5 069 kb/s
Encoded date : UTC 2018-01-31 20:57:19
Writing application : mkvmerge v20.0.0 ('I Am The Sun') 64-bit
Writing library : libebml v1.3.5 + libmatroska v1.4.8

Video
ID : 2
Format : AVC
Format/Info : Advanced Video Codec
Format profile : High@L4
Format settings : CABAC / 2 Ref Frames
Format settings, CABAC : Yes
Format settings, RefFrames : 2 frames
Codec ID : V_MPEG4/ISO/AVC
Duration : 41 min 58 s
Bit rate : 4 920 kb/s
Width : 1 920 pixels
Height : 1 080 pixels
Display aspect ratio : 16:9
Frame rate mode : Constant
Frame rate : 29.970 (30000/1001) FPS
Original frame rate : 30.000 FPS
Color space : YUV
Chroma subsampling : 4:2:0
Bit depth : 8 bits
Scan type : Progressive
Bits/(Pixel*Frame) : 0.079
Stream size : 1.45 GiB (97%)
Writing library : x264 core 148 r2579M 73ae2d1
Encoding settings : cabac=1 / ref=2 / deblock=1:0:0 / analyse=0x3:0x113 / me=hex / subme=2 / psy=1 / psy_rd=1.00:0.00 / mixed_ref=0 / me_range=16 / chroma_me=1 / trellis=0 / 8x8dct=1 / cqm=0 / deadzone=21,11 / fast_pskip=1 / chroma_qp_offset=0 / threads=1 / lookahead_threads=1 / sliced_threads=0 / nr=250 / decimate=1 / interlaced=0 / bluray_compat=0 / stitchable=1 / constrained_intra=0 / bframes=0 / weightp=1 / keyint=250 / keyint_min=25 / scenecut=40 / intra_refresh=0 / rc_lookahead=10 / rc=2pass / mbtree=1 / bitrate=4920 / ratetol=1.0 / qcomp=0.60 / qpmin=5 / qpmax=69 / qpstep=4 / cplxblur=20.0 / qblur=0.5 / ip_ratio=1.40 / aq=1:1.00
Language : English
Default : Yes
Forced : No

Audio
ID : 1
Format : AAC
Format/Info : Advanced Audio Codec
Format profile : HE-AAC / LC
Format settings : Implicit
Codec ID : A_AAC-2
Duration : 41 min 58 s
Bit rate : 127 kb/s
Channel(s) : 2 channels
Channel positions : Front: L R
Sampling rate : 48.0 kHz / 24.0 kHz
Frame rate : 23.438 FPS (1024 SPF)
Compression mode : Lossy
Stream size : 38.1 MiB (3%)
Language : English
Default : Yes
Forced : No





Moonshiners S07E00


Moonshiners S07E00


Moonshiners S07E00


Moonshiners S07E00


Moonshiners S07E00

All episodes