Index
# A B C D E F G H I J K L M N O P Q R S T U V W Y Z
Tags
Language
Tags

Featured TV Shows


Rel S02E16

Posted By: Tavaz
720p (HD) / WEBRip IMDb
Rel S02E16

Rel S02E16
WEBRip | MKV | 960x720 | English | H264 @ 3387 kbps | AC-3 @ 384 kbps | 11 min 46 s | 318 MiB
Subtitles: English
Genre: Comedy


A successful comic tries to put his life back on track after his marriage falls apart.

fa6adf8b83664a72bb2750136d489769.mkv (317.6 MB)



General
Unique ID : 222367518956234607527538680383671077789 (0xA74A6D24BAA322C6C549FACFF26B8B9D)
Complete name : ./fa6adf8b83664a72bb2750136d489769.mkv
Format : Matroska
Format version : Version 4 / Version 2
File size : 318 MiB
Duration : 11 min 46 s
Overall bit rate mode : Variable
Overall bit rate : 3 773 kb/s
Encoded date : UTC 2022-06-05 12:15:55
Writing application : mkvmerge v63.0.0 ('Everything') 64-bit
Writing library : libebml v1.4.2 + libmatroska v1.6.4

Video
ID : 1
Format : AVC
Format/Info : Advanced Video Codec
Format profile : Main@L3.1
Format settings : CABAC / 4 Ref Frames
Format settings, CABAC : Yes
Format settings, RefFrames : 4 frames
Codec ID : V_MPEG4/ISO/AVC
Duration : 11 min 46 s
Bit rate mode : Variable
Bit rate : 3 387 kb/s
Maximum bit rate : 5 100 kb/s
Width : 960 pixels
Height : 720 pixels
Display aspect ratio : 4:3
Frame rate mode : Constant
Frame rate : 29.970 (30000/1001) FPS
Color space : YUV
Chroma subsampling : 4:2:0
Bit depth : 8 bits
Scan type : Progressive
Bits/(Pixel*Frame) : 0.164
Stream size : 285 MiB (90%)
Default : Yes
Forced : No
Color range : Limited
Color primaries : BT.709
Transfer characteristics : BT.709
Matrix coefficients : BT.709

Audio
ID : 2
Format : AC-3
Format/Info : Audio Coding 3
Format settings, Endianness : Big
Codec ID : A_AC3
Duration : 11 min 46 s
Bit rate mode : Constant
Bit rate : 384 kb/s
Channel(s) : 2 channels
Channel positions : Front: L R
Sampling rate : 48.0 kHz
Frame rate : 31.250 FPS (1536 SPF)
Bit depth : 16 bits
Compression mode : Lossy
Stream size : 32.3 MiB (10%)
Language : English
Service kind : Complete Main
Default : Yes
Forced : No

Text
ID : 3
Format : UTF-8
Codec ID : S_TEXT/UTF8
Codec ID/Info : UTF-8 Plain Text
Duration : 11 min 31 s
Bit rate : 101 b/s
Count of elements : 266
Stream size : 8.56 KiB (0%)
Title : English
Language : English
Default : No
Forced : No





Rel S02E16


Rel S02E16


Rel S02E16


Rel S02E16


Rel S02E16

All episodes