Featured TV Shows


Mr. Mercedes S03E01

Posted By: Tavaz
1080p (FullHD) / WEB-DL IMDb
Mr. Mercedes S03E01

Mr. Mercedes S03E01
WEB-DL | MKV | 1920x1080 | English | H264 @ 6335 kbps | E-AC-3 @ 640 kbps | 1 h 2 min | 3.07 GiB
Subtitles: English
Genre: Drama


A demented serial killer taunts a retired police detective with a series of lurid letters and emails, forcing the ex-cop to undertake a private, and potentially felonious, crusade to bring the killer to justice before he can strike again. Based on the bestselling novel by Stephen King.

fd229cf5ba474214b709e249b1b27db5.mkv (3.1 GB)



General
Unique ID : 107852018543813655439054292092785205283 (0x51238B0FA77847847F75D100756F2023)
Complete name : ./fd229cf5ba474214b709e249b1b27db5.mkv
Format : Matroska
Format version : Version 4 / Version 2
File size : 3.07 GiB
Duration : 1 h 2 min
Overall bit rate : 6 977 kb/s
Encoded date : UTC 2019-09-11 13:09:15
Writing application : mkvmerge v19.0.0 ('Brave Captain') 64-bit
Writing library : libebml v1.3.5 + libmatroska v1.4.8

Video
ID : 1
Format : AVC
Format/Info : Advanced Video Codec
Format profile : High@L4
Format settings : CABAC / 4 Ref Frames
Format settings, CABAC : Yes
Format settings, RefFrames : 4 frames
Codec ID : V_MPEG4/ISO/AVC
Duration : 1 h 2 min
Bit rate mode : Constant
Bit rate : 6 335 kb/s
Nominal bit rate : 10 000 kb/s
Width : 1 920 pixels
Height : 1 080 pixels
Display aspect ratio : 16:9
Frame rate mode : Constant
Frame rate : 23.976 (24000/1001) FPS
Color space : YUV
Chroma subsampling : 4:2:0
Bit depth : 8 bits
Scan type : Progressive
Bits/(Pixel*Frame) : 0.127
Stream size : 2.79 GiB (91%)
Default : Yes
Forced : No
Color range : Limited
Color primaries : BT.709
Transfer characteristics : BT.709
Matrix coefficients : BT.709

Audio
ID : 2
Format : E-AC-3
Format/Info : Enhanced Audio Coding 3
Format settings, Endianness : Big
Codec ID : A_EAC3
Duration : 1 h 2 min
Bit rate mode : Constant
Bit rate : 640 kb/s
Channel(s) : 6 channels
Channel positions : Front: L C R, Side: L R, LFE
Sampling rate : 48.0 kHz
Frame rate : 187.500 FPS (256 SPF)
Compression mode : Lossy
Stream size : 288 MiB (9%)
Language : English
Service kind : Complete Main
Default : Yes
Forced : No

Text
ID : 3
Format : UTF-8
Codec ID : S_TEXT/UTF8
Codec ID/Info : UTF-8 Plain Text
Duration : 1 h 2 min
Bit rate : 67 b/s
Count of elements : 1148
Stream size : 30.8 KiB (0%)
Title : SDH
Language : English
Default : No
Forced : No





Mr. Mercedes S03E01


Mr. Mercedes S03E01


Mr. Mercedes S03E01


Mr. Mercedes S03E01


Mr. Mercedes S03E01

All episodes