Featured TV Shows


Mr. Mercedes S03E08

Posted By: Tavaz
1080p (FullHD) / WEBRip IMDb
Mr. Mercedes S03E08

Mr. Mercedes S03E08
WEBRip | MKV | 1920x1080 | French / English | H264 @ 6680 kbps | E-AC-3 @ 640 kbps | 47 min 52 s | 2.66 GiB
Subtitles: French, English
Genre: Drama


A demented serial killer taunts a retired police detective with a series of lurid letters and emails, forcing the ex-cop to undertake a private, and potentially felonious, crusade to bring the killer to justice before he can strike again. Based on the bestselling novel by Stephen King.

9614ba8f96bd4ef1a8f605153c363053.mkv (2.7 GB)



General
Unique ID : 162941974759642171509683953105528313164 (0x7A957B9B5178C9284441D7BC6ABE554C)
Complete name : ./9614ba8f96bd4ef1a8f605153c363053.mkv
Format : Matroska
Format version : Version 4 / Version 2
File size : 2.66 GiB
Duration : 47 min 52 s
Overall bit rate : 7 963 kb/s
Encoded date : UTC 2019-11-07 22:53:38
Writing application : mkvmerge v39.0.0 ('In The Waiting Line') 64-bit
Writing library : libebml v1.3.9 + libmatroska v1.5.2

Video
ID : 1
Format : AVC
Format/Info : Advanced Video Codec
Format profile : High@L4
Format settings : CABAC / 4 Ref Frames
Format settings, CABAC : Yes
Format settings, RefFrames : 4 frames
Codec ID : V_MPEG4/ISO/AVC
Duration : 47 min 52 s
Bit rate mode : Constant
Bit rate : 6 681 kb/s
Nominal bit rate : 10 000 kb/s
Width : 1 920 pixels
Height : 1 080 pixels
Display aspect ratio : 16:9
Frame rate mode : Constant
Frame rate : 23.976 (24000/1001) FPS
Color space : YUV
Chroma subsampling : 4:2:0
Bit depth : 8 bits
Scan type : Progressive
Bits/(Pixel*Frame) : 0.134
Stream size : 2.23 GiB (84%)
Default : Yes
Forced : No
Color range : Limited
Color primaries : BT.709
Transfer characteristics : BT.709
Matrix coefficients : BT.709

Audio #1
ID : 2
Format : E-AC-3
Format/Info : Enhanced Audio Coding 3
Format settings, Endianness : Big
Codec ID : A_EAC3
Duration : 47 min 52 s
Bit rate mode : Constant
Bit rate : 640 kb/s
Channel(s) : 6 channels
Channel positions : Front: L C R, Side: L R, LFE
Sampling rate : 48.0 kHz
Frame rate : 187.500 FPS (256 SPF)
Compression mode : Lossy
Stream size : 219 MiB (8%)
Title : French
Language : French
Service kind : Complete Main
Default : Yes
Forced : No

Audio #2
ID : 3
Format : E-AC-3
Format/Info : Enhanced Audio Coding 3
Format settings, Endianness : Big
Codec ID : A_EAC3
Duration : 47 min 52 s
Bit rate mode : Constant
Bit rate : 640 kb/s
Channel(s) : 6 channels
Channel positions : Front: L C R, Side: L R, LFE
Sampling rate : 48.0 kHz
Frame rate : 187.500 FPS (256 SPF)
Compression mode : Lossy
Stream size : 219 MiB (8%)
Title : English
Language : English
Service kind : Complete Main
Default : No
Forced : No

Text #1
ID : 4
Format : UTF-8
Codec ID : S_TEXT/UTF8
Codec ID/Info : UTF-8 Plain Text
Duration : 11 min 6 s
Bit rate : 0 b/s
Count of elements : 3
Stream size : 82.0 Bytes (0%)
Title : French (Forced)
Language : French
Default : Yes
Forced : Yes

Text #2
ID : 5
Format : UTF-8
Codec ID : S_TEXT/UTF8
Codec ID/Info : UTF-8 Plain Text
Duration : 45 min 43 s
Bit rate : 66 b/s
Count of elements : 648
Stream size : 22.3 KiB (0%)
Title : French
Language : French
Default : No
Forced : No

Text #3
ID : 6
Format : UTF-8
Codec ID : S_TEXT/UTF8
Codec ID/Info : UTF-8 Plain Text
Duration : 47 min 41 s
Bit rate : 83 b/s
Count of elements : 935
Stream size : 29.0 KiB (0%)
Title : English
Language : English
Default : No
Forced : No





Mr. Mercedes S03E08


Mr. Mercedes S03E08


Mr. Mercedes S03E08


Mr. Mercedes S03E08


Mr. Mercedes S03E08

All episodes