Index
# A B C D E F G H I J K L M N O P Q R S T U V W Y Z
Tags
Language
Tags

Featured TV Shows


Mr. Robot S01E10

Posted By: Tavaz
1080p (FullHD) / BluRay Remux IMDb
Mr. Robot S01E10

Mr. Robot S01E10
BluRay Remux | MKV | 1920x1080 | English | H264 @ 20286 kbps | DTS | 53 min 59 s | 9.16 GiB
Subtitles: English
Genre: Crime, Drama


A contemporary and culturally resonant drama about a young programmer, Elliot, who suffers from a debilitating anti-social disorder and decides that he can only connect to people by hacking them. He wields his skills as a weapon to protect the people that he cares about. Elliot will find himself in the intersection between a cybersecurity firm he works for and the underworld organizations that are recruiting him to bring down corporate America.

Mr.Robot.S01E10.eps1.9.zer0-day.avi.1080p.DTS-HD.MA.5.1.AVC.REMUX-FraMeSToR-AsRequested.part1.rar (4.8 GB)
Mr.Robot.S01E10.eps1.9.zer0-day.avi.1080p.DTS-HD.MA.5.1.AVC.REMUX-FraMeSToR-AsRequested.part2.rar (4.4 GB)



General
Unique ID : 201563347688946186372895171102598849259 (0x97A3B04EAD2D66CEA62189122F2962EB)
Complete name : ./WojA.mkv
Format : Matroska
Format version : Version 4 / Version 2
File size : 9.16 GiB
Duration : 53 min 59 s
Overall bit rate mode : Variable
Overall bit rate : 24.3 Mb/s
Movie name : Mr.Robot.S01E10.eps1.9_zer0-day.avi.1080p.DTS-HD.MA.5.1.AVC.REMUX-FraMeSToR
Encoded date : UTC 2015-12-31 03:38:44
Writing application : mkvmerge v8.6.1 ('Flying') 64bit
Writing library : libebml v1.3.3 + libmatroska v1.4.4

Video
ID : 1
Format : AVC
Format/Info : Advanced Video Codec
Format profile : High@L4.1
Format settings : CABAC / 4 Ref Frames
Format settings, CABAC : Yes
Format settings, RefFrames : 4 frames
Codec ID : V_MPEG4/ISO/AVC
Duration : 53 min 59 s
Bit rate mode : Variable
Bit rate : 20.3 Mb/s
Maximum bit rate : 35.0 Mb/s
Width : 1 920 pixels
Height : 1 080 pixels
Display aspect ratio : 16:9
Frame rate mode : Constant
Frame rate : 23.976 (24000/1001) FPS
Color space : YUV
Chroma subsampling : 4:2:0
Bit depth : 8 bits
Scan type : Progressive
Bits/(Pixel*Frame) : 0.408
Stream size : 7.65 GiB (84%)
Title : MPEG-4 AVC Video / 20493 kbps / 1080p / 23.976 fps / 16:9 / High Profile 4.1
Default : Yes
Forced : No

Audio
ID : 2
Format : DTS
Format/Info : Digital Theater Systems
Format profile : MA / Core
Mode : 16
Format settings, Endianness : Big
Codec ID : A_DTS
Duration : 53 min 59 s
Bit rate mode : Variable / Constant
Bit rate : 3 944 kb/s / 1 509 kb/s
Channel(s) : 6 channels
Channel positions : Front: L C R, Side: L R, LFE
Sampling rate : 48.0 kHz
Frame rate : 93.750 FPS (512 SPF)
Bit depth : 24 bits
Compression mode : Lossless / Lossy
Stream size : 1.49 GiB (16%)
Title : DTS-HD MA 5.1 / 48 kHz / 3944 kbps / 24-bit (DTS Core: 5.1 / 48 kHz / 1509 kbps / 24-bit)
Language : English
Default : Yes
Forced : No

Text
ID : 3
Format : PGS
Codec ID : S_HDMV/PGS
Codec ID/Info : Picture based subtitle format used on BDs/HD-DVDs
Duration : 53 min 48 s
Bit rate : 45.9 kb/s
Count of elements : 1598
Stream size : 17.7 MiB (0%)
Title : English SDH
Language : English
Default : No
Forced : No

Menu
00:00:00.000 : en:00:00:00.000
00:08:01.356 : en:00:08:01.356
00:24:37.518 : en:00:24:37.518
00:42:44.687 : en:00:42:44.687





Mr. Robot S01E10


Mr. Robot S01E10


Mr. Robot S01E10


Mr. Robot S01E10


Mr. Robot S01E10

All episodes