Index
# A B C D E F G H I J K L M N O P Q R S T U V W Y Z
Tags
Language
Tags

Featured TV Shows


Mr. Robot S02E06

Posted By: Tavaz
1080p (FullHD) / BDRip IMDb
Mr. Robot S02E06

Mr. Robot S02E06
BDRip | MKV | 1920x1080 | English | H265 @ 3384 kbps | AC-3 @ 448 kbps | 49 min 55 s | 1.34 GiB
Subtitles: English
Genre: Crime, Drama


A contemporary and culturally resonant drama about a young programmer, Elliot, who suffers from a debilitating anti-social disorder and decides that he can only connect to people by hacking them. He wields his skills as a weapon to protect the people that he cares about. Elliot will find himself in the intersection between a cybersecurity firm he works for and the underworld organizations that are recruiting him to bring down corporate America.

031121e6ce9990144bb9286e278d21a6.mkv (1.3 GB)



General
Unique ID : 207097156893411105666170147912842752591 (0x9BCD762A7D7A46BBB6AC7F999D0C324F)
Complete name : ./031121e6ce9990144bb9286e278d21a6.mkv
Format : Matroska
Format version : Version 2
File size : 1.34 GiB
Duration : 49 min 55 s
Overall bit rate : 3 846 kb/s
Movie name : Mr.Robot.S02E06.BluRay.10Bit.1080p.DD5.1.H265-d3g
Encoded date : UTC 2020-04-03 17:23:15
Writing application : DVDFab 10.0.9.2
Writing library : libebml v1.3.4 + libmatroska v1.4.5

Video
ID : 1
Format : HEVC
Format/Info : High Efficiency Video Coding
Format profile : Main 10@L4@Main
Codec ID : V_MPEGH/ISO/HEVC
Duration : 49 min 54 s
Bit rate : 3 385 kb/s
Width : 1 920 pixels
Height : 1 080 pixels
Display aspect ratio : 16:9
Frame rate mode : Constant
Frame rate : 23.976 (24000/1001) FPS
Color space : YUV
Chroma subsampling : 4:2:0
Bit depth : 10 bits
Bits/(Pixel*Frame) : 0.068
Stream size : 1.18 GiB (88%)
Default : Yes
Forced : No
Color range : Limited
Color primaries : BT.709
Transfer characteristics : BT.709
Matrix coefficients : BT.709

Audio
ID : 2
Format : AC-3
Format/Info : Audio Coding 3
Format settings, Endianness : Big
Codec ID : A_AC3
Duration : 49 min 55 s
Bit rate mode : Constant
Bit rate : 448 kb/s
Channel(s) : 6 channels
Channel positions : Front: L C R, Side: L R, LFE
Sampling rate : 48.0 kHz
Frame rate : 31.250 FPS (1536 SPF)
Bit depth : 16 bits
Compression mode : Lossy
Stream size : 160 MiB (12%)
Language : English
Service kind : Complete Main
Default : Yes
Forced : No

Text
ID : 3
Format : VobSub
Codec ID : S_VOBSUB
Codec ID/Info : Picture based subtitle format used on DVDs
Duration : 49 min 18 s
Bit rate : 11.6 kb/s
Count of elements : 781
Stream size : 4.09 MiB (0%)
Language : English
Default : Yes
Forced : No

Menu
00:00:00.000 : en:Chapter 1
00:04:08.874 : en:Chapter 2
00:16:50.134 : en:Chapter 3
00:30:08.306 : en:Chapter 4





Mr. Robot S02E06


Mr. Robot S02E06


Mr. Robot S02E06


Mr. Robot S02E06


Mr. Robot S02E06

All episodes