Index
# A B C D E F G H I J K L M N O P Q R S T U V W Y Z
Tags
Language
Tags

Featured TV Shows


Mr. Robot S02E07

Posted By: Tavaz
1080p (FullHD) / BluRay Remux IMDb
Mr. Robot S02E07

Mr. Robot S02E07
BluRay Remux | MKV | 1920x1080 | English | H264 @ 24200 kbps | DTS | 48 min 36 s | 9.47 GiB
Subtitles: Nederlands, Français, English
Genre: Crime, Drama


A contemporary and culturally resonant drama about a young programmer, Elliot, who suffers from a debilitating anti-social disorder and decides that he can only connect to people by hacking them. He wields his skills as a weapon to protect the people that he cares about. Elliot will find himself in the intersection between a cybersecurity firm he works for and the underworld organizations that are recruiting him to bring down corporate America.

Mr.Robot.S02E07.eps2.5 h4ndshake.sme.1080p.DTS-HD.MA.5.1.AVC.REMUX-FraMeSToR-AsRequested.part1.rar (5.0 GB)
Mr.Robot.S02E07.eps2.5 h4ndshake.sme.1080p.DTS-HD.MA.5.1.AVC.REMUX-FraMeSToR-AsRequested.part2.rar (4.6 GB)



General
Unique ID : 316114515644574802311665869581850955398 (0xEDD170EF702708F81DED95787EB2CE86)
Complete name : ./c4zs.mkv
Format : Matroska
Format version : Version 4 / Version 2
File size : 9.47 GiB
Duration : 48 min 36 s
Overall bit rate mode : Variable
Overall bit rate : 27.9 Mb/s
Movie name : Mr. Robot S02E07
Encoded date : UTC 2016-12-10 14:07:47
Writing application : mkvmerge v9.6.0 ('Slave To Your Mind') 64bit
Writing library : libebml v1.3.4 + libmatroska v1.4.5

Video
ID : 1
Format : AVC
Format/Info : Advanced Video Codec
Format profile : High@L4.1
Format settings : CABAC / 4 Ref Frames
Format settings, CABAC : Yes
Format settings, RefFrames : 4 frames
Codec ID : V_MPEG4/ISO/AVC
Duration : 48 min 36 s
Bit rate mode : Variable
Bit rate : 24.2 Mb/s
Maximum bit rate : 35.0 Mb/s
Width : 1 920 pixels
Height : 1 080 pixels
Display aspect ratio : 16:9
Frame rate mode : Constant
Frame rate : 23.976 (24000/1001) FPS
Color space : YUV
Chroma subsampling : 4:2:0
Bit depth : 8 bits
Scan type : Progressive
Bits/(Pixel*Frame) : 0.487
Stream size : 8.22 GiB (87%)
Default : Yes
Forced : No

Audio
ID : 2
Format : DTS
Format/Info : Digital Theater Systems
Format profile : MA / Core
Mode : 16
Format settings, Endianness : Big
Codec ID : A_DTS
Duration : 48 min 36 s
Bit rate mode : Variable / Constant
Bit rate : 3 591 kb/s / 1 509 kb/s
Channel(s) : 6 channels
Channel positions : Front: L C R, Side: L R, LFE
Sampling rate : 48.0 kHz
Frame rate : 93.750 FPS (512 SPF)
Bit depth : 24 bits
Compression mode : Lossless / Lossy
Stream size : 1.22 GiB (13%)
Title : DTS-HD MA 5.1
Language : English
Default : Yes
Forced : No

Text #1
ID : 3
Format : PGS
Codec ID : S_HDMV/PGS
Codec ID/Info : Picture based subtitle format used on BDs/HD-DVDs
Duration : 47 min 58 s
Bit rate : 40.2 kb/s
Count of elements : 1327
Stream size : 13.8 MiB (0%)
Title : English (SDH)
Language : English
Default : Yes
Forced : No

Text #2
ID : 4
Format : PGS
Codec ID : S_HDMV/PGS
Codec ID/Info : Picture based subtitle format used on BDs/HD-DVDs
Duration : 48 min 32 s
Bit rate : 35.4 kb/s
Count of elements : 1098
Stream size : 12.3 MiB (0%)
Title : French
Language : French
Default : No
Forced : No

Text #3
ID : 5
Format : PGS
Codec ID : S_HDMV/PGS
Codec ID/Info : Picture based subtitle format used on BDs/HD-DVDs
Duration : 48 min 32 s
Bit rate : 36.9 kb/s
Count of elements : 1127
Stream size : 12.8 MiB (0%)
Title : Dutch
Language : Dutch
Default : No
Forced : No

Menu
00:00:00.000 : en:00:00:00.000
00:02:09.338 : en:00:02:09.338
00:23:24.945 : en:00:23:24.945
00:38:50.745 : en:00:38:50.745





Mr. Robot S02E07


Mr. Robot S02E07


Mr. Robot S02E07


Mr. Robot S02E07


Mr. Robot S02E07

All episodes